<?xml version="1.0" standalone="no"?>
<!DOCTYPE svg PUBLIC "-//W3C//DTD SVG 1.1//EN" "http://www.w3.org/Graphics/SVG/1.1/DTD/svg11.dtd" >
<svg xmlns="http://www.w3.org/2000/svg">
<metadata>
<json>
<![CDATA[
{
	"fontFamily": "uni2-icons",
	"fontURL": "",
	"description": "Font icons by theme \"Unitheme2\".\nFont generated by IcoMoon.",
	"copyright": "Alexbranding",
	"majorVersion": 2,
	"minorVersion": 0,
	"version": "Version 2.0",
	"fontId": "uni2-icons",
	"psName": "uni2-icons",
	"subFamily": "Regular",
	"fullName": "uni2-icons"
}
]]>
</json>
</metadata>
<defs>
<font id="uni2-icons" horiz-adv-x="1024">
<font-face units-per-em="1024" ascent="1024" descent="0" />
<missing-glyph horiz-adv-x="1024" />
<glyph unicode="&#x20;" horiz-adv-x="0" d="" />
<glyph unicode="&#xe777;" glyph-name="search" data-tags="search" d="M991.283 91.298l-243.714 253.474c62.663 74.491 96.997 168.216 96.997 265.788 0 227.967-185.473 413.44-413.44 413.44s-413.44-185.473-413.44-413.44 185.473-413.44 413.44-413.44c85.582 0 167.137 25.813 236.865 74.815l245.565-255.398c10.264-10.66 24.069-16.538 38.863-16.538 14.003 0 27.287 5.339 37.371 15.046 21.427 20.618 22.11 54.808 1.492 76.253zM431.127 916.146c168.504 0 305.586-137.082 305.586-305.586s-137.082-305.586-305.586-305.586-305.586 137.082-305.586 305.586 137.082 305.586 305.586 305.586z" />
<glyph unicode="&#xe900;" glyph-name="local_offer" data-tags="local_offer_black_24dp" d="M913.493 529.92l-384 384c-15.36 15.36-36.693 24.747-60.16 24.747h-298.667c-46.933 0-85.333-38.4-85.333-85.333v-298.667c0-23.467 9.387-44.8 25.173-60.587l384-384c15.36-15.36 36.693-24.747 60.16-24.747s44.8 9.387 60.16 25.173l298.667 298.667c15.787 15.36 25.173 36.693 25.173 60.16s-9.813 45.227-25.173 60.587zM234.667 725.333c-35.413 0-64 28.587-64 64s28.587 64 64 64 64-28.587 64-64-28.587-64-64-64z" />
<glyph unicode="&#xe901;" glyph-name="outline-menu" data-tags="outline-menu" d="M128 256h768v85.333h-768v-85.333zM128 469.333h768v85.333h-768v-85.333zM128 768v-85.333h768v85.333h-768z" />
<glyph unicode="&#xe902;" glyph-name="baseline-favorite-border" data-tags="baseline-favorite-border" d="M704 903.466c-74.24 0-145.493-34.56-192-89.173-46.507 54.613-117.76 89.173-192 89.173-131.413 0-234.667-103.253-234.667-234.667 0-161.28 145.067-292.693 364.8-492.373l61.867-55.893 61.867 56.32c219.733 199.253 364.8 330.667 364.8 491.947 0 131.413-103.253 234.667-234.667 234.667zM516.267 239.999l-4.267-4.267-4.267 4.267c-203.093 183.893-337.067 305.493-337.067 428.8 0 85.333 64 149.333 149.333 149.333 65.707 0 129.707-42.24 152.32-100.693h79.787c22.187 58.453 86.187 100.693 151.893 100.693 85.333 0 149.333-64 149.333-149.333 0-123.307-133.973-244.907-337.067-428.8z" />
<glyph unicode="&#xe903;" glyph-name="right" data-tags="right" d="M1024 512.003l-163.881 163.879v-131.626h-860.119v-64.509h860.119v-131.628z" />
<glyph unicode="&#xe904;" glyph-name="outline-expand_less" data-tags="outline-expand_less" d="M512 670.080l-256-256 60.16-60.16 195.84 195.413 195.84-195.413 60.16 60.16-256 256z" />
<glyph unicode="&#xe905;" glyph-name="baseline-favorite" data-tags="baseline-favorite" d="M512 120.533l-61.867 56.32c-219.733 199.253-364.8 330.667-364.8 491.947 0 131.413 103.253 234.667 234.667 234.667 74.24 0 145.493-34.56 192-89.173 46.507 54.613 117.76 89.173 192 89.173 131.413 0 234.667-103.253 234.667-234.667 0-161.28-145.067-292.693-364.8-492.373l-61.867-55.893z" />
<glyph unicode="&#xe906;" glyph-name="baseline-equalizer" data-tags="baseline-equalizer" d="M170.7 512h99.7v-341.3h-99.7v341.3zM462.2 872.3h99.7v-701.7h-99.7v701.7zM753.7 640h99.7v-469.3h-99.7v469.3z" />
<glyph unicode="&#xe907;" glyph-name="baseline-visibility" data-tags="baseline-visibility" d="M512 832c-213.333 0-395.52-132.693-469.333-320 73.813-187.307 256-320 469.333-320s395.52 132.693 469.333 320c-73.813 187.307-256 320-469.333 320zM512 298.667c-117.76 0-213.333 95.573-213.333 213.333s95.573 213.333 213.333 213.333 213.333-95.573 213.333-213.333-95.573-213.333-213.333-213.333zM512 640c-70.827 0-128-57.173-128-128s57.173-128 128-128 128 57.173 128 128-57.173 128-128 128z" />
<glyph unicode="&#xe908;" glyph-name="outline-expand_more" data-tags="outline-expand_more" d="M707.84 670.080l-195.84-195.413-195.84 195.413-60.16-60.16 256-256 256 256-60.16 60.16z" />
<glyph unicode="&#xe909;" glyph-name="outline-arrow_back" data-tags="outline-arrow_back" d="M760.96 858.88l-75.947 75.52-421.973-422.4 422.4-422.4 75.52 75.52-346.88 346.88 346.88 346.88z" />
<glyph unicode="&#xe90a;" glyph-name="outline-arrow_forward" data-tags="outline-arrow_forward" d="M263.040 165.12l75.52-75.52 422.4 422.4-422.4 422.4-75.52-75.52 346.88-346.88-346.88-346.88z" />
<glyph unicode="&#xe90b;" glyph-name="baseline-cart" data-tags="baseline-cart" d="M341.334 255.999c-46.933 0-84.907-38.4-84.907-85.333s37.973-85.333 84.907-85.333 85.333 38.4 85.333 85.333-38.4 85.333-85.333 85.333zM85.334 938.666v-85.333h85.333l153.6-323.84-57.6-104.533c-6.827-11.947-10.667-26.027-10.667-40.96 0-46.933 38.4-85.333 85.333-85.333h512v85.333h-494.080c-5.973 0-10.667 4.693-10.667 10.667l1.28 5.12 38.4 69.547h317.867c32 0 60.16 17.493 74.667 43.947l152.747 276.907c3.413 5.973 5.12 13.227 5.12 20.48 0 23.467-19.2 42.667-42.667 42.667h-631.040l-40.107 85.333h-139.52zM768 255.999c-46.933 0-84.907-38.4-84.907-85.333s37.973-85.333 84.907-85.333 85.333 38.4 85.333 85.333-38.4 85.333-85.333 85.333z" />
<glyph unicode="&#xe90c;" glyph-name="outline-cart" data-tags="outline-cart" d="M705.974 469.333c32 0 60.16 17.493 74.667 43.947l152.747 276.907c15.787 28.16-4.693 63.147-37.12 63.147h-631.467l-40.107 85.333h-139.52v-85.333h85.333l153.6-323.84-57.6-104.107c-31.147-57.173 9.813-126.72 74.667-126.72h512v85.333h-512l46.933 85.333h317.867zM305.334 768h518.4l-117.76-213.333h-299.52l-101.12 213.333zM341.174 256c-46.933 0-84.907-38.4-84.907-85.333s37.973-85.333 84.907-85.333c46.933 0 85.333 38.4 85.333 85.333s-38.4 85.333-85.333 85.333zM767.84 256c-46.933 0-84.907-38.4-84.907-85.333s37.973-85.333 84.907-85.333c46.933 0 85.333 38.4 85.333 85.333s-38.4 85.333-85.333 85.333z" />
<glyph unicode="&#xe90d;" glyph-name="outline-account-circle" data-tags="outline-account-circle" d="M512 938.667c-235.52 0-426.667-191.147-426.667-426.667s191.147-426.667 426.667-426.667c235.52 0 426.667 191.147 426.667 426.667s-191.147 426.667-426.667 426.667zM301.653 244.053c18.347 38.4 130.133 75.947 210.347 75.947s192.427-37.547 210.347-75.947c-58.027-46.080-130.987-73.387-210.347-73.387s-152.32 27.307-210.347 73.387zM783.36 305.92c-61.013 74.24-209.067 99.413-271.36 99.413s-210.347-25.173-271.36-99.413c-43.52 57.173-69.973 128.427-69.973 206.080 0 188.16 153.173 341.333 341.333 341.333s341.333-153.173 341.333-341.333c0-77.653-26.453-148.907-69.973-206.080zM512 768c-82.773 0-149.333-66.56-149.333-149.333s66.56-149.333 149.333-149.333c82.773 0 149.333 66.56 149.333 149.333s-66.56 149.333-149.333 149.333zM512 554.667c-35.413 0-64 28.587-64 64s28.587 64 64 64c35.413 0 64-28.587 64-64s-28.587-64-64-64z" />
<glyph unicode="&#xe90e;" glyph-name="baseline-visibility-off" data-tags="baseline-visibility-off" d="M512.213 746.667c117.76 0 213.333-95.573 213.333-213.333 0-27.733-5.547-53.76-15.36-78.080l124.587-124.587c64.427 53.76 115.2 123.307 146.347 202.667-73.813 187.307-256 320-469.333 320-59.733 0-116.907-10.667-169.813-29.867l92.16-92.16c24.32 9.813 50.347 15.36 78.080 15.36zM85.546 863.147l116.907-116.907c-70.827-55.040-126.293-128.427-159.573-212.907 73.813-187.307 256-320 469.333-320 66.133 0 129.28 12.8 186.88 35.84l17.92-17.92 125.013-124.587 54.187 54.187-756.48 756.48-54.187-54.187zM321.493 627.201l66.133-66.133c-2.133-8.96-3.413-18.347-3.413-27.733 0-70.827 57.173-128 128-128 9.387 0 18.773 1.28 27.733 3.413l66.133-66.133c-28.587-14.080-60.16-22.613-93.867-22.613-117.76 0-213.333 95.573-213.333 213.333 0 33.707 8.533 65.28 22.613 93.867zM505.386 660.481l134.4-134.4 0.853 6.827c0 70.827-57.173 128-128 128l-7.253-0.427z" />
<glyph unicode="&#xe90f;" glyph-name="outline-settings" data-tags="outline-settings" d="M829.107 470.187c1.707 13.653 2.987 27.307 2.987 41.813s-1.28 28.16-2.987 41.813l90.027 70.4c8.107 6.4 10.24 17.92 5.12 27.307l-85.333 147.627c-3.84 6.827-11.093 10.667-18.773 10.667-2.56 0-5.12-0.427-7.253-1.28l-106.24-42.667c-22.187 17.067-46.080 31.147-72.107 41.813l-16.213 113.067c-1.28 10.24-10.24 17.92-20.907 17.92h-170.667c-10.667 0-19.627-7.68-20.907-17.92l-16.213-113.067c-26.027-10.667-49.92-25.173-72.107-41.813l-106.24 42.667c-2.56 0.853-5.12 1.28-7.68 1.28-7.253 0-14.507-3.84-18.347-10.667l-85.333-147.627c-5.547-9.387-2.987-20.907 5.12-27.307l90.027-70.4c-1.707-13.653-2.987-27.733-2.987-41.813s1.28-28.16 2.987-41.813l-90.027-70.4c-8.107-6.4-10.24-17.92-5.12-27.307l85.333-147.627c3.84-6.827 11.093-10.667 18.773-10.667 2.56 0 5.12 0.427 7.253 1.28l106.24 42.667c22.187-17.067 46.080-31.147 72.107-41.813l16.213-113.067c1.28-10.24 10.24-17.92 20.907-17.92h170.667c10.667 0 19.627 7.68 20.907 17.92l16.213 113.067c26.027 10.667 49.92 25.173 72.107 41.813l106.24-42.667c2.56-0.853 5.12-1.28 7.68-1.28 7.253 0 14.507 3.84 18.347 10.667l85.333 147.627c5.12 9.387 2.987 20.907-5.12 27.307l-90.027 70.4zM744.627 543.147c1.707-13.227 2.133-22.187 2.133-31.147s-0.853-18.347-2.133-31.147l-5.973-48.213 37.973-29.867 46.080-35.84-29.867-51.627-54.187 21.76-44.373 17.92-38.4-29.013c-18.347-13.653-35.84-23.893-53.333-31.147l-45.227-18.347-6.827-48.213-8.533-57.6h-59.733l-8.107 57.6-6.827 48.213-45.227 18.347c-18.347 7.68-35.413 17.493-52.48 30.293l-38.827 29.867-45.227-18.347-54.187-21.76-29.867 51.627 46.080 35.84 37.973 29.867-5.973 48.213c-1.28 13.227-2.133 23.040-2.133 31.573s0.853 18.347 2.133 31.147l5.973 48.213-37.973 29.867-46.080 35.84 29.867 51.627 54.187-21.76 44.373-17.92 38.4 29.013c18.347 13.653 35.84 23.893 53.333 31.147l45.227 18.347 6.827 48.213 8.533 57.6h59.307l8.107-57.6 6.827-48.213 45.227-18.347c18.347-7.68 35.413-17.493 52.48-30.293l38.827-29.867 45.227 18.347 54.187 21.76 29.867-51.627-45.653-36.267-37.973-29.867 5.973-48.213zM512.094 682.667c-94.293 0-170.667-76.373-170.667-170.667s76.373-170.667 170.667-170.667 170.667 76.373 170.667 170.667-76.373 170.667-170.667 170.667zM512.094 426.667c-46.933 0-85.333 38.4-85.333 85.333s38.4 85.333 85.333 85.333 85.333-38.4 85.333-85.333-38.4-85.333-85.333-85.333z" />
<glyph unicode="&#xe910;" glyph-name="outline-info" data-tags="outline-info" d="M469.333 725.333h85.333v-85.333h-85.333v85.333zM469.333 554.667h85.333v-256h-85.333v256zM512 938.667c-235.52 0-426.667-191.147-426.667-426.667s191.147-426.667 426.667-426.667 426.667 191.147 426.667 426.667c0 235.52-191.147 426.667-426.667 426.667zM512 170.667c-188.16 0-341.333 153.173-341.333 341.333s153.173 341.333 341.333 341.333 341.333-153.173 341.333-341.333c0-188.16-153.173-341.333-341.333-341.333z" />
<glyph unicode="&#xe911;" glyph-name="baseline-settings" data-tags="baseline-settings" d="M816.64 472.064c1.536 12.8 2.56 26.112 2.56 39.936s-1.024 27.136-3.072 39.936l86.528 67.584c7.68 6.144 9.728 17.408 5.12 26.112l-81.92 141.824c-5.12 9.216-15.872 12.288-25.088 9.216l-101.888-40.96c-21.504 16.384-44.032 29.696-69.12 39.936l-15.36 108.544c-1.536 10.24-10.24 17.408-20.48 17.408h-163.84c-10.24 0-18.432-7.168-19.968-17.408l-15.36-108.544c-25.088-10.24-48.128-24.064-69.12-39.936l-101.888 40.96c-9.216 3.584-19.968 0-25.088-9.216l-81.92-141.824c-5.12-9.216-3.072-19.968 5.12-26.112l86.528-67.584c-2.048-12.8-3.584-26.624-3.584-39.936s1.024-27.136 3.072-39.936l-86.528-67.584c-7.68-6.144-9.728-17.408-5.12-26.112l81.92-141.824c5.12-9.216 15.872-12.288 25.088-9.216l101.888 40.96c21.504-16.384 44.032-29.696 69.12-39.936l15.36-108.544c2.048-10.24 10.24-17.408 20.48-17.408h163.84c10.24 0 18.944 7.168 19.968 17.408l15.36 108.544c25.088 10.24 48.128 24.064 69.12 39.936l101.888-40.96c9.216-3.584 19.968 0 25.088 9.216l81.92 141.824c5.12 9.216 3.072 19.968-5.12 26.112l-85.504 67.584zM512 358.4c-84.48 0-153.6 69.12-153.6 153.6s69.12 153.6 153.6 153.6 153.6-69.12 153.6-153.6-69.12-153.6-153.6-153.6z" />
<glyph unicode="&#xe912;" glyph-name="baseline-touch_app" data-tags="baseline-touch_app" d="M373.335 608.426v159.573c0 58.88 47.787 106.667 106.667 106.667s106.667-47.787 106.667-106.667v-159.573c51.627 34.56 85.333 93.013 85.333 159.573 0 106.24-85.76 192-192 192s-192-85.76-192-192c0-66.56 33.707-125.013 85.333-159.573zM793.175 410.879l-193.707 96.427c-7.253 2.987-14.933 4.693-23.040 4.693h-32.427v256c0 35.413-28.587 64-64 64s-64-28.587-64-64v-458.24l-146.347 30.72c-3.413 0.427-6.4 1.28-10.24 1.28-13.227 0-25.173-5.547-33.707-14.080l-33.707-34.133 210.773-210.773c11.52-11.52 27.733-18.773 45.227-18.773h289.707c32 0 56.747 23.467 61.44 54.613l32 224.853c0.427 2.987 0.853 5.973 0.853 8.533 0 26.453-16.213 49.493-38.827 58.88z" />
<glyph unicode="&#xe913;" glyph-name="star" data-tags="star" d="M511.999 265.813l263.68-159.147-69.973 299.947 232.96 201.813-306.773 26.027-119.893 282.88-119.893-282.88-306.773-26.027 232.96-201.813-69.973-299.947 263.68 159.147z" />
<glyph unicode="&#xe914;" glyph-name="outline-star" data-tags="outline-star" d="M938.666 608.428l-306.773 26.453-119.893 282.453-119.893-282.88-306.773-26.027 232.96-201.813-69.973-299.947 263.68 159.147 263.68-159.147-69.547 299.947 232.533 201.813zM511.999 345.601l-160.427-96.853 42.667 182.613-141.653 122.88 186.88 16.213 72.533 171.947 72.96-172.373 186.88-16.213-141.653-122.88 42.667-182.613-160.853 97.28z" />
<glyph unicode="&#xe915;" glyph-name="star-half" data-tags="star-half" d="M938.666 608.428l-306.773 26.453-119.893 282.453-119.893-282.88-306.773-26.027 232.96-201.813-69.973-299.947 263.68 159.147 263.68-159.147-69.547 299.947 232.533 201.813zM511.999 345.601v396.8l72.96-172.373 186.88-16.213-141.653-122.88 42.667-182.613-160.853 97.28z" />
<glyph unicode="&#xe916;" glyph-name="outline-check-circle" data-tags="outline-check-circle" d="M512 938.667c-235.52 0-426.667-191.147-426.667-426.667s191.147-426.667 426.667-426.667 426.667 191.147 426.667 426.667-191.147 426.667-426.667 426.667zM512 170.667c-188.16 0-341.333 153.173-341.333 341.333s153.173 341.333 341.333 341.333 341.333-153.173 341.333-341.333-153.173-341.333-341.333-341.333zM707.84 700.587l-281.173-281.173-110.507 110.080-60.16-60.16 170.667-170.667 341.333 341.333z" />
<glyph unicode="&#xe917;" glyph-name="facebook" data-tags="facebook" d="M380.592 815.88c0-24.999 0-136.578 0-136.578h-100.061v-167.008h100.061v-496.29h205.548v496.276h137.932c0 0 12.919 80.079 19.18 167.638-17.952 0-156.334 0-156.334 0s0 97.16 0 114.19c0 17.068 22.412 40.024 44.561 40.024 22.108 0 68.772 0 111.991 0 0 22.738 0 101.305 0 173.866-57.695 0-123.336 0-152.268 0-215.689 0.012-210.608-167.163-210.608-192.117z" />
<glyph unicode="&#xe918;" glyph-name="icons8-vk" data-tags="icons8-vk" d="M561.067 190.933c-354.133 0-552.533 238.933-561.067 642.133h177.067c4.267-294.4 136.533-420.267 238.933-443.733v443.733h164.267v-253.867c102.4 10.667 206.933 123.733 243.2 253.867h164.267c-27.733-157.867-145.067-275.2-228.267-322.133 83.2-38.4 215.467-140.8 264.533-320h-183.467c-38.4 121.6-136.533 215.467-266.667 230.4v-230.4h-12.8z" />
<glyph unicode="&#xe919;" glyph-name="twitter" data-tags="twitter-x" d="M959.999 64l-352.8 515.2 328.531 380.8h-91.469l-278.131-321.069-220.269 321.069h-281.869l345.331-504-337.869-392h91.469l285.6 332.269 229.6-332.269h281.869z" />
<glyph unicode="&#xe91a;" glyph-name="skype" data-tags="skype" d="M966.579 440.188c3.701 23.42 5.651 47.381 5.651 71.836 0 254.19-206.052 460.237-460.249 460.237-24.392 0-48.421-2.010-71.822-5.67-42.387 26.227-92.416 41.405-146.032 41.405-153.599 0-278.118-124.504-278.118-278.118 0-53.603 15.187-103.59 41.403-146.063-3.627-23.461-5.625-47.343-5.625-71.8 0-254.209 206.047-460.193 460.185-460.193 24.412 0 48.45 1.883 71.846 5.574 42.432-26.177 92.418-41.395 146.023-41.395 153.64 0 278.147 124.536 278.147 278.147 0.012 53.624-15.166 103.6-41.407 146.040zM730.498 302.705c-19.47-28.029-48.071-49.932-85.442-65.682-37.448-15.791-81.708-23.65-132.821-23.65-61.261 0-111.981 10.72-152.016 32.367-28.379 15.501-51.461 36.295-69.206 62.224-17.781 25.95-26.798 51.365-26.798 76.143 0 14.617 5.574 27.329 16.425 37.694 10.964 10.441 25.085 15.673 41.754 15.673 13.654 0 25.382-4.113 34.93-12.26 9.476-8.147 17.427-19.99 23.928-35.617 7.792-18.105 16.258-33.239 25.264-45.314 8.952-11.927 21.547-21.882 37.862-29.675 16.135-7.814 37.608-11.721 64.48-11.721 36.774 0 66.494 7.955 89.239 23.647 22.86 15.836 33.84 35.102 33.84 58.381 0 18.569-5.921 33.315-18.061 44.811-12.25 11.647-28.072 20.517-47.707 26.704-19.71 6.252-46.172 12.883-79.334 19.87-44.531 9.718-81.773 21.032-111.933 34.022-30.199 13.041-54.249 30.865-72.075 53.382-17.863 22.737-26.769 50.999-26.769 84.474 0 31.919 9.402 60.465 28.228 85.308 18.816 24.912 46.035 43.982 81.531 57.263 35.371 13.278 77.010 19.92 124.713 19.92 38.149 0 71.147-4.415 99.079-13.196 27.856-8.846 51.075-20.522 69.642-35.172 18.447-14.617 32.023-30.036 40.622-46.215 8.59-16.227 12.918-32.077 12.918-47.542 0-14.38-5.574-27.423-16.437-38.852-10.861-11.445-24.754-17.281-40.979-17.228-14.626 0-26.101 3.375-34.058 10.516-7.749 6.911-15.889 17.911-24.692 33.244-11.129 21.394-24.457 38.061-39.955 49.983-15.091 11.699-39.987 17.791-74.63 17.717-32.053 0-57.699-6.549-77.056-19.36-19.477-13.014-28.788-28.115-28.831-45.805 0.031-11.086 3.219-20.433 9.634-28.427 6.513-8.068 15.575-15.058 27.222-20.95 11.651-5.984 23.504-10.614 35.414-13.944 12.051-3.416 32.044-8.353 59.835-14.892 34.853-7.512 66.466-15.903 94.873-25.051 28.352-9.194 52.546-20.28 72.536-33.488 20.148-13.17 35.895-29.959 47.137-50.239 11.321-20.311 16.96-45.12 16.96-74.313 0.043-35.153-9.749-66.768-29.265-94.753z" />
<glyph unicode="&#xe91b;" glyph-name="pinterest" data-tags="pinterest" d="M800.72 906.346c-68.284 65.552-162.781 101.653-266.081 101.653-157.799 0-254.851-64.685-308.48-118.945-66.095-66.868-103.997-155.657-103.997-243.606 0-110.424 46.188-195.178 123.535-226.708 5.192-2.128 10.418-3.199 15.539-3.199 16.318 0 29.246 10.677 33.726 27.804 2.611 9.827 8.66 34.066 11.291 44.588 5.631 20.781 1.082 30.777-11.197 45.247-22.37 26.469-32.788 57.769-32.788 98.505 0 120.997 90.098 249.594 257.084 249.594 132.497 0 214.803-75.305 214.803-196.528 0-76.496-16.477-147.34-46.406-199.487-20.798-36.235-57.367-79.427-113.508-79.427-24.277 0-46.086 9.972-59.847 27.359-12.999 16.436-17.283 37.667-12.057 59.796 5.907 25.001 13.96 51.079 21.753 76.291 14.216 46.046 27.653 89.538 27.653 124.236 0 59.351-36.487 99.23-90.786 99.23-69.006 0-123.068-70.089-123.068-159.561 0-43.88 11.662-76.701 16.942-89.305-8.693-36.833-60.357-255.808-70.157-297.101-5.667-24.104-39.802-214.489 16.699-229.673 63.481-17.057 120.224 168.366 125.999 189.319 4.681 17.040 21.058 81.475 31.095 121.084 30.645-29.519 79.987-49.474 127.999-49.474 90.51 0 171.908 40.729 229.201 114.678 55.566 71.726 86.168 171.698 86.168 281.484 0 85.83-36.859 170.443-101.116 232.142z" />
<glyph unicode="&#xe91c;" glyph-name="viber" data-tags="viber" d="M875.949 594.293c1.231 144.371-121.732 276.722-274.101 295.023-3.031 0.359-6.332 0.906-9.827 1.485-7.543 1.25-15.344 2.535-23.215 2.535-31.229 0-39.577-21.936-41.774-35.020-2.137-12.72-0.099-23.403 6.049-31.763 10.342-14.063 28.538-16.559 43.154-18.559 4.284-0.592 8.326-1.142 11.709-1.902 136.898-30.59 182.994-78.683 205.522-214.417 0.55-3.317 0.798-7.403 1.062-11.738 0.983-16.225 3.031-49.982 39.322-49.982h0.003c3.021 0 6.268 0.261 9.648 0.776 33.795 5.136 32.736 35.993 32.227 50.818-0.143 4.176-0.28 8.125 0.073 10.752 0.095 0.661 0.143 1.326 0.146 1.991zM559.947 942.31c4.055-0.293 7.893-0.572 11.089-1.062 224.8-34.571 328.182-141.080 356.832-367.638 0.487-3.851 0.563-8.548 0.642-13.522 0.286-17.701 0.875-54.523 40.419-55.286l1.228-0.013c12.402 0 22.267 3.74 29.324 11.124 12.31 12.876 11.452 32.005 10.758 47.377-0.169 3.772-0.331 7.324-0.289 10.434 2.859 231.71-197.712 441.824-429.215 449.638-0.96 0.032-1.876-0.019-2.802-0.149-0.455-0.067-1.297-0.149-2.741-0.149-2.309 0-5.149 0.2-8.16 0.404-3.641 0.248-7.769 0.534-11.954 0.534-36.867 0-43.876-26.204-44.773-41.825-2.067-36.101 32.857-38.642 49.642-39.866zM917.021 280.796c-4.78 3.651-9.722 7.429-14.349 11.156-24.544 19.752-50.656 37.958-75.91 55.566-5.241 3.651-10.482 7.305-15.703 10.968-32.348 22.722-61.43 33.763-88.907 33.763-37.007 0-69.273-20.448-95.903-60.769-11.798-17.875-26.112-26.567-43.752-26.567-10.431 0-22.283 2.977-35.223 8.85-104.413 47.349-178.971 119.945-221.607 215.771-20.61 46.315-13.929 76.59 22.344 101.23 20.598 13.98 58.937 40.006 56.221 89.845-3.075 56.597-127.952 226.889-180.567 246.231-22.277 8.192-45.682 8.268-69.692 0.191-60.486-20.334-103.891-56.043-125.535-103.262-20.916-45.625-19.971-99.198 2.732-154.926 65.631-161.124 157.906-301.603 274.27-417.528 113.899-113.48 253.892-206.435 416.084-276.273 14.619-6.29 29.954-9.722 41.151-12.224 3.816-0.859 7.111-1.59 9.512-2.248 1.32-0.359 2.681-0.553 4.045-0.566l1.282-0.006c0.003 0 0 0 0.006 0 76.285 0 167.882 69.708 196.013 149.18 24.646 69.587-20.353 103.984-56.511 131.619zM593.688 758.257c-13.061-0.331-40.241-1.005-49.778-28.688-4.462-12.937-3.927-24.169 1.59-33.385 8.097-13.522 23.609-17.666 37.719-19.939 51.171-8.211 77.452-36.508 82.709-89.043 2.442-24.496 18.938-41.602 40.117-41.602h0.003c1.565 0 3.164 0.092 4.757 0.286 25.473 3.031 37.821 21.746 36.705 55.62 0.407 35.353-18.095 75.49-49.562 107.46-31.575 32.068-69.638 50.128-104.26 49.292z" />
<glyph unicode="&#xe91d;" glyph-name="whatsapp" data-tags="whatsapp" d="M512.122 1000h-0.244c-269.071 0-487.878-218.868-487.878-488 0-106.75 34.404-205.692 92.903-286.029l-60.817-181.292 187.575 59.963c77.165-51.118 169.214-80.642 268.461-80.642 269.071 0 487.878 218.929 487.878 488s-218.807 488-487.878 488zM796.077 310.883c-11.773-33.245-58.499-60.817-95.77-68.869-25.498-5.429-58.804-9.76-170.922 36.722-143.411 59.414-235.765 205.143-242.963 214.598-6.893 9.455-57.95 77.165-57.95 147.193s35.563 104.127 49.898 118.767c11.773 12.017 31.232 17.507 49.898 17.507 6.039 0 11.468-0.305 16.348-0.549 14.335-0.61 21.533-1.464 30.988-24.095 11.773-28.365 40.443-98.393 43.859-105.591 3.477-7.198 6.954-16.958 2.074-26.413-4.575-9.76-8.601-14.091-15.799-22.387s-14.030-14.64-21.228-23.546c-6.588-7.747-14.030-16.043-5.734-30.378 8.296-14.030 36.966-60.817 79.178-98.393 54.473-48.495 98.637-63.989 114.436-70.577 11.773-4.88 25.803-3.721 34.404 5.429 10.919 11.773 24.4 31.293 38.125 50.508 9.76 13.786 22.082 15.494 35.014 10.614 13.176-4.575 82.899-39.040 97.234-46.177 14.335-7.198 23.79-10.614 27.267-16.653 3.416-6.039 3.416-34.404-8.357-67.71z" />
<glyph unicode="&#xe91e;" glyph-name="linkedin" data-tags="linkedin" d="M1024 401.333v-378.579h-219.476v353.224c0 88.733-31.745 149.29-111.188 149.29-60.645 0-96.735-40.811-112.612-80.288-5.79-14.113-7.28-33.757-7.28-53.512v-368.714h-219.55c0 0 2.957 598.246 0 660.229h219.529v-93.585c-0.445-0.7-1.024-1.455-1.443-2.133h1.443v2.133c29.167 44.922 81.255 109.095 197.845 109.095 144.447 0.002 252.733-94.363 252.733-297.16zM124.235 1001.246c-75.108 0-124.235-49.265-124.235-114.050 0-63.373 47.705-114.133 121.321-114.133h1.467c76.562 0 124.177 50.75 124.177 114.133-1.443 64.785-47.615 114.050-122.73 114.050zM13.039 22.754h219.467v660.229h-219.467v-660.229z" />
<glyph unicode="&#xe91f;" glyph-name="youtube" data-tags="youtube" d="M1023.425 597.714c-0.372 20.569-2.001 46.576-4.85 77.997-2.864 31.439-6.961 59.535-12.289 84.291-6.096 27.806-19.336 51.237-39.713 70.285-20.377 19.052-44.094 30.096-71.15 33.148-84.578 9.517-212.385 14.28-383.425 14.28-171.043 0-298.852-4.763-383.423-14.28-27.052-3.050-50.675-14.096-70.86-33.148-20.193-19.042-33.336-42.473-39.433-70.285-5.708-24.764-9.999-52.859-12.855-84.291-2.852-31.421-4.473-57.418-4.852-77.997-0.386-20.571-0.574-49.14-0.574-85.714 0-36.571 0.188-65.147 0.576-85.714 0.378-20.583 1.999-46.576 4.852-77.995 2.856-31.437 6.953-59.533 12.287-84.293 6.096-27.814 19.332-51.241 39.713-70.281 20.385-19.048 44.104-30.094 71.148-33.144 84.572-9.527 212.373-14.288 383.423-14.288 171.057 0 298.848 4.761 383.425 14.288 27.056 3.048 50.669 14.096 70.862 33.144 20.193 19.042 33.328 42.481 39.425 70.281 5.712 24.76 9.999 52.857 12.863 84.293 2.848 31.417 4.465 57.424 4.85 77.995 0.382 20.567 0.574 49.144 0.574 85.714 0 36.575-0.19 65.143-0.574 85.714zM714.287 481.142l-292.567-182.851c-5.336-3.809-11.819-5.712-19.434-5.712-5.71 0-11.614 1.529-17.709 4.575-12.569 6.849-18.852 17.521-18.852 31.993v365.704c0 14.469 6.285 25.14 18.852 31.995 12.955 6.867 25.332 6.483 37.143-1.143l292.569-182.853c11.424-6.465 17.136-16.756 17.136-30.852 0-14.090-5.714-24.386-17.138-30.856z" />
<glyph unicode="&#xe921;" glyph-name="close" data-tags="close" d="M1023.977 992.087l-31.863 31.913-480.114-480.082-480.082 480.082-31.895-31.913 480.082-480.078-480.082-480.082 31.895-31.927 480.082 480.146 480.114-480.146 31.863 31.927-480.082 480.082z" />
<glyph unicode="&#xe922;" glyph-name="instagram" data-tags="instagram" d="M704 1024h-384c-176.704 0-320-143.296-320-320v-384c0-176.704 143.296-320 320-320h384c176.704 0 320 143.296 320 320v384c0 176.704-143.296 320-320 320zM928 320c0-123.52-100.48-224-224-224h-384c-123.52 0-224 100.48-224 224v384c0 123.52 100.48 224 224 224h384c123.52 0 224-100.48 224-224v-384zM512 768c-141.376 0-256-114.624-256-256s114.624-256 256-256 256 114.624 256 256-114.624 256-256 256zM512 352c-88.192 0-160 71.808-160 160 0 88.256 71.808 160 160 160s160-71.744 160-160c0-88.192-71.808-160-160-160zM821.312 787.2c0-18.84-15.272-34.112-34.112-34.112s-34.112 15.272-34.112 34.112c0 18.84 15.272 34.112 34.112 34.112s34.112-15.272 34.112-34.112z" />
<glyph unicode="&#xe923;" glyph-name="help_outline" data-tags="help_outline" d="M512 768c94 0 170-76 170-170 0-106-128-118-128-214h-84c0 138 128 128 128 214 0 46-40 84-86 84s-86-38-86-84h-84c0 94 76 170 170 170zM512 170c188 0 342 154 342 342s-154 342-342 342-342-154-342-342 154-342 342-342zM512 938c236 0 426-190 426-426s-190-426-426-426-426 190-426 426 190 426 426 426zM470 256v86h84v-86h-84z" />
<glyph unicode="&#xe924;" glyph-name="highlight_off" data-tags="highlight_off" d="M512 170c188 0 342 154 342 342s-154 342-342 342-342-154-342-342 154-342 342-342zM512 938c236 0 426-190 426-426s-190-426-426-426-426 190-426 426 190 426 426 426zM622 682l60-60-110-110 110-110-60-60-110 110-110-110-60 60 110 110-110 110 60 60 110-110z" />
<glyph unicode="&#xe925;" glyph-name="schedule" data-tags="schedule" d="M534 726v-224l192-114-32-54-224 136v256h64zM512 170c188 0 342 154 342 342s-154 342-342 342-342-154-342-342 154-342 342-342zM512 938c236 0 426-190 426-426s-190-426-426-426-426 190-426 426 190 426 426 426z" />
<glyph unicode="&#xe926;" glyph-name="share" data-tags="share" d="M768 338c68 0 124-56 124-124s-56-126-124-126-124 58-124 126c0 10 0 20 2 28l-302 176c-24-22-54-34-88-34-70 0-128 58-128 128s58 128 128 128c34 0 64-12 88-34l300 174c-2 10-4 20-4 30 0 70 58 128 128 128s128-58 128-128-58-128-128-128c-34 0-64 14-88 36l-300-176c2-10 4-20 4-30s-2-20-4-30l304-176c22 20 52 32 84 32z" />
<glyph unicode="&#xe927;" glyph-name="restore" data-tags="restore" d="M534.389 685.040h65.141v-183.216l152.68-91.608-32.573-52.927-185.254 111.967v215.79zM577.139 902.86c215.79 0 390.86-175.070 390.86-390.86s-175.070-390.86-390.86-390.86c-107.892 0-203.575 42.75-274.823 113.999l61.071 63.11c54.964-54.964 130.289-89.57 213.752-89.57 168.963 0 305.36 134.358 305.36 303.321s-136.396 303.321-305.36 303.321-303.321-134.358-303.321-303.321h130.289l-175.070-175.070-4.069 6.107-168.963 168.963h130.289c0 215.79 175.070 390.86 390.86 390.86z" />
<glyph unicode="&#xe928;" glyph-name="baseline-verified_user" data-tags="baseline-verified_user" d="M512 981.334l-384-170.667v-256c0-236.8 163.84-458.24 384-512 220.16 53.76 384 275.2 384 512v256l-384 170.667zM426.667 298.668l-170.667 170.667 60.16 60.16 110.507-110.080 281.173 281.173 60.16-60.587-341.333-341.333z" />
<glyph unicode="&#xe929;" glyph-name="baseline-local_shipping" data-tags="baseline-local_shipping" d="M853.333 682.666h-128v170.667h-597.333c-46.933 0-85.333-38.4-85.333-85.333v-469.333h85.333c0-70.827 57.173-128 128-128s128 57.173 128 128h256c0-70.827 57.173-128 128-128s128 57.173 128 128h85.333v213.333l-128 170.667zM256 234.666c-35.413 0-64 28.587-64 64s28.587 64 64 64 64-28.587 64-64-28.587-64-64-64zM832 618.666l83.627-106.667h-190.293v106.667h106.667zM768 234.666c-35.413 0-64 28.587-64 64s28.587 64 64 64 64-28.587 64-64-28.587-64-64-64z" />
<glyph unicode="&#xe92a;" glyph-name="priority" data-tags="priority" d="M597.333 810.667h341.333v-85.333h-341.333zM597.333 576h341.333v-85.333h-341.333zM597.333 341.333h341.333v-85.333h-341.333zM85.333 533.333c0-152.747 124.587-277.333 277.333-277.333h21.333v-85.333l128 128-128 128v-85.333h-21.333c-105.813 0-192 86.187-192 192s86.187 192 192 192h149.333v85.333h-149.333c-152.747 0-277.333-124.587-277.333-277.333z" />
<glyph unicode="&#xe92b;" glyph-name="sort" data-tags="sort" d="M128 256h256v85.333h-256v-85.333zM128 768v-85.333h768v85.333h-768zM128 469.333h512v85.333h-512v-85.333z" />
<glyph unicode="&#xe92c;" glyph-name="baseline-delete" data-tags="baseline-delete" d="M256 213.333c0-46.933 38.4-85.333 85.333-85.333h341.333c46.933 0 85.333 38.4 85.333 85.333v512h-512v-512zM360.96 517.12l60.16 60.16 90.88-90.453 90.453 90.453 60.16-60.16-90.453-90.453 90.453-90.453-60.16-60.16-90.453 90.453-90.453-90.453-60.16 60.16 90.453 90.453-90.88 90.453zM661.333 853.333l-42.667 42.667h-213.333l-42.667-42.667h-149.333v-85.333h597.333v85.333z" />
<glyph unicode="&#xe92d;" glyph-name="filter-empty" data-tags="filter-empty" d="M383.6 62.8v348.6l-354.6 527c-14.4 16.6-8.2 62.2 33.8 63.6h898.4c24.4 0 55.4-28.8 33.8-63.6l-354.6-527v-216.4c0-12.8-6-24.8-16.2-32.6l-175.2-132.2c-10-11.2-60.2-18.6-65.4 32.6zM139.6 920.4l318.8-473.8c4.6-6.8 7-14.6 7-22.8v-279.2l93.6 70.6v208.6c0 8.2 2.4 16 7 22.8l318.4 473.8h-744.8z" />
<glyph unicode="&#xe92e;" glyph-name="baseline-close" data-tags="baseline-close" d="M810.667 750.507l-60.16 60.16-238.507-238.507-238.507 238.507-60.16-60.16 238.507-238.507-238.507-238.507 60.16-60.16 238.507 238.507 238.507-238.507 60.16 60.16-238.507 238.507z" />
<glyph unicode="&#xe92f;" glyph-name="baseline-shopping_basket" data-tags="baseline-shopping_basket" d="M734.293 619.094l-186.88 279.893c-8.107 11.947-21.76 17.92-35.413 17.92s-27.307-5.973-35.413-18.347l-186.88-279.467h-204.373c-23.467 0-42.667-19.2-42.667-42.667 0-3.84 0.427-7.68 1.707-11.52l108.373-395.52c9.813-35.84 42.667-62.293 81.92-62.293h554.667c39.253 0 72.107 26.453 82.347 62.293l108.373 395.52 1.28 11.52c0 23.467-19.2 42.667-42.667 42.667h-204.373zM384 619.094l128 187.733 128-187.733h-256zM512 277.761c-46.933 0-85.333 38.4-85.333 85.333s38.4 85.333 85.333 85.333 85.333-38.4 85.333-85.333-38.4-85.333-85.333-85.333z" />
<glyph unicode="&#xe930;" glyph-name="baseline-archive" data-tags="baseline-archive" d="M876.373 800.853l-59.307 71.68c-11.52 14.507-29.013 23.467-49.067 23.467h-512c-20.053 0-37.547-8.96-49.493-23.467l-58.88-71.68c-12.373-14.507-19.627-33.707-19.627-54.187v-533.333c0-46.933 38.4-85.333 85.333-85.333h597.333c46.933 0 85.333 38.4 85.333 85.333v533.333c0 20.48-7.253 39.68-19.627 54.187zM512 277.333l-234.667 234.667h149.333v85.333h170.667v-85.333h149.333l-234.667-234.667zM218.453 810.667l34.56 42.667h512l40.107-42.667h-586.667z" />
<glyph unicode="&#xe931;" glyph-name="baseline-backspace" data-tags="baseline-backspace" d="M938.667 896h-640c-29.44 0-52.48-14.933-67.84-37.547l-230.827-346.453 230.827-346.027c15.36-22.613 38.4-37.973 67.84-37.973h640c46.933 0 85.333 38.4 85.333 85.333v597.333c0 46.933-38.4 85.333-85.333 85.333zM810.667 358.827l-60.16-60.16-153.173 153.173-153.173-153.173-60.16 60.16 153.173 153.173-153.173 153.173 60.16 60.16 153.173-153.173 153.173 153.173 60.16-60.16-153.173-153.173 153.173-153.173z" />
<glyph unicode="&#xe932;" glyph-name="baseline-person" data-tags="baseline-person" d="M512 512c94.293 0 170.667 76.373 170.667 170.667s-76.373 170.667-170.667 170.667-170.667-76.373-170.667-170.667 76.373-170.667 170.667-170.667zM512 426.667c-113.92 0-341.333-57.173-341.333-170.667v-85.333h682.667v85.333c0 113.493-227.413 170.667-341.333 170.667z" />
<glyph unicode="&#xe933;" glyph-name="baseline-whatshot" data-tags="baseline-whatshot" d="M576 995.413s31.573-113.067 31.573-204.8c0-87.893-57.6-159.147-145.493-159.147-88.32 0-154.88 71.253-154.88 159.147l1.28 15.36c-86.187-102.4-137.813-235.093-137.813-379.307 0-188.587 152.747-341.333 341.333-341.333s341.333 152.747 341.333 341.333c0 229.973-110.507 435.2-277.333 568.747zM499.627 213.333c-75.947 0-137.387 59.733-137.387 133.973 0 69.12 44.8 117.76 119.893 133.12 75.52 15.36 153.6 51.627 197.12 110.080 16.64-55.040 25.173-113.067 25.173-172.373 0-113.067-91.733-204.8-204.8-204.8z" />
<glyph unicode="&#xe934;" glyph-name="baseline-credit_card" data-tags="baseline-credit_card" d="M853.333 853.333h-682.667c-47.36 0-84.907-37.973-84.907-85.333l-0.427-512c0-47.36 37.973-85.333 85.333-85.333h682.667c47.36 0 85.333 37.973 85.333 85.333v512c0 47.36-37.973 85.333-85.333 85.333zM853.333 256h-682.667v256h682.667v-256zM853.333 682.667h-682.667v85.333h682.667v-85.333z" />
<glyph unicode="&#xe935;" glyph-name="baseline-phone" data-tags="baseline-phone" d="M682.666 981.333h-341.333c-58.88 0-106.667-47.787-106.667-106.667v-725.333c0-58.88 47.787-106.667 106.667-106.667h341.333c58.88 0 106.667 47.787 106.667 106.667v725.333c0 58.88-47.787 106.667-106.667 106.667zM512 85.333c-35.413 0-64 28.587-64 64s28.587 64 64 64 64-28.587 64-64-28.587-64-64-64zM704 256h-384v597.333h384v-597.333z" />
<glyph unicode="&#xe936;" glyph-name="messenger" data-tags="messenger" d="M512 1000c-269.498 0-488-202.316-488-451.848 0-142.212 70.964-269.050 181.862-351.848v-172.304l166.164 91.174c44.326-12.24 91.338-18.87 139.974-18.87 269.498 0 488 202.276 488 451.848 0 249.53-218.502 451.848-488 451.848zM560.516 391.504l-124.278 132.532-242.496-132.532 266.732 283.162 127.286-132.532 239.486 132.532-266.732-283.162z" />
<glyph unicode="&#xe937;" glyph-name="snapchat" data-tags="snapchat" d="M1000.887 273.287c-129.038 21.265-187.83 151.769-194.11 166.583-0.12 0.29-0.614 1.332-0.75 1.638-6.468 13.142-8.072 23.807-4.694 31.675 6.776 16.025 35.481 25.105 53.86 30.923 5.172 1.672 10.018 3.208 13.876 4.744 37.171 14.678 55.824 33.433 55.43 55.788-0.358 17.731-14.268 34.013-34.867 41.301-7.1 2.97-15.548 4.59-23.773 4.59-5.684 0-14.132-0.802-22.203-4.574-15.736-7.356-29.729-11.316-40.311-11.776-4.71 0.188-8.278 0.972-10.854 1.844 0.324 5.58 0.7 11.316 1.058 17.169l0.188 2.986c4.386 69.612 9.83 156.241-13.346 208.155-68.538 153.663-213.991 165.609-256.948 165.609l-20.035-0.188c-42.871 0-188.052-11.93-256.522-165.507-23.227-52.034-17.731-138.628-13.328-208.223 0.426-6.844 0.854-13.516 1.228-20.019-2.936-1.006-7.168-1.894-12.92-1.894-12.322 0-27.083 3.994-43.861 11.844-24.251 11.366-68.588-3.822-74.58-35.293-3.26-17.031 3.602-41.591 54.764-61.814 3.976-1.57 8.978-3.174 15.122-5.12 17.151-5.444 45.857-14.54 52.648-30.531 3.362-7.902 1.758-18.567-5.324-33.023-2.526-5.888-63.298-144.243-197.524-166.343-13.926-2.286-23.859-14.644-23.073-28.705 0.222-3.908 1.126-7.834 2.798-11.794 11.282-26.385 54.236-44.697 135.096-57.53 1.774-4.59 3.84-14.012 5.018-19.473 1.706-7.8 3.498-15.854 5.94-24.199 2.458-8.448 9.762-22.613 30.889-22.613 7.15 0 15.428 1.622 24.421 3.362 12.936 2.542 30.617 5.99 52.546 5.99 12.168 0 24.831-1.092 37.649-3.208 24.183-4.010 45.397-19.011 70.006-36.403 36.231-25.617 69.17-45.209 135.044-45.209 1.74 0 3.464 0.052 5.154 0.17 2.44-0.12 4.898-0.17 7.39-0.17 57.7 0 108.489 15.24 150.983 45.259 23.483 16.621 45.669 32.323 69.868 36.351 12.852 2.116 25.531 3.208 37.699 3.208 21.025 0 37.801-2.696 52.768-5.632 10.12-1.996 18.039-2.952 25.343-2.952 14.746 0 25.599 8.106 29.747 22.253 2.39 8.226 4.182 16.041 5.922 24.029 0.922 4.25 3.14 14.422 5.018 19.319 79.7 12.68 120.402 30.275 131.666 56.592 1.69 3.788 2.68 7.8 2.952 12.066 0.756 14.068-9.144 26.423-23.069 28.745z" />
<glyph unicode="&#xe938;" glyph-name="baseline-loop" data-tags="baseline-loop" d="M512 853.333v128l-170.667-170.667 170.667-170.667v128c141.227 0 256-114.773 256-256 0-43.093-10.667-84.053-29.867-119.467l62.293-62.293c33.28 52.48 52.907 114.773 52.907 181.76 0 188.587-152.747 341.333-341.333 341.333zM512 256c-141.227 0-256 114.773-256 256 0 43.093 10.667 84.053 29.867 119.467l-62.293 62.293c-33.28-52.48-52.907-114.773-52.907-181.76 0-188.587 152.747-341.333 341.333-341.333v-128l170.667 170.667-170.667 170.667v-128z" />
<glyph unicode="&#xe939;" glyph-name="mailru" data-tags="mailru" d="M889.224 837.127c-164.454 171.725-437.146 205.824-643.994 82.739-270.438-160.87-275.866-471.45-173.875-647.987 150.835-261.325 473.907-266.342 589.926-216.883 76.8 32.666 42.701 132.608-31.334 102.81-146.022-58.982-391.782 0.102-477.696 198.349-78.848 181.76 2.355 375.194 129.024 462.643 119.194 82.227 343.45 106.291 510.464-39.936 179.405-156.979 103.322-427.622 39.731-493.056-16.282-16.691-45.67-3.277-43.11 22.733l-0.205 396.186c0 11.162-7.68 46.387-44.851 46.387h-6.042c-23.859 0-40.96-19.251-40.96-44.646v0.102c-52.941 53.043-125.030 86.938-201.728 86.938-151.552 0-284.877-134.861-284.877-287.949 0-151.552 133.325-284.877 284.877-284.877 76.698 0 147.046 30.618 199.987 83.149l0.819-28.262c-0.717-86.528 112.128-144.282 188.109-84.89 167.629 130.662 177.664 466.944 5.734 646.451zM493.55 314.17c-100.966 0-177.971 72.499-177.971 187.29 0 102.502 63.693 192.819 178.381 192.819h3.789c99.43 0 181.76-66.765 187.494-177.664l0.205-22.426c-5.222-97.587-79.258-180.019-191.898-180.019z" />
<glyph unicode="&#xe93a;" glyph-name="thumblr" data-tags="thumblr" d="M672.663 166.67c-29.767 0-55.776 6.888-77.989 20.665-17.342 10.23-28.879 23.558-34.656 40.003-6.241 15.999-9.342 54.226-9.342 114.684v262.658h242.656v160.662h-242.658v258.658h-146.008c-6.669-52.44-18.661-95.99-35.994-130.674-17.335-34.219-40.225-63.554-68.668-87.995-28.447-24.009-62.891-42.675-103.336-56.003v-144.665h113.329v-359.332c0-47.552 4.894-83.336 14.664-107.333 9.338-24.011 26.897-47.335 52.671-70.006 26.663-22.215 57.334-38.882 91.997-49.983 36.001-12.002 77.335-18.010 124-18.010 42.67 0 81.106 4.233 115.331 12.674 33.778 7.558 73.34 22.005 118.672 43.342v161.332c-51.118-33.795-102.665-50.679-154.668-50.679z" />
<glyph unicode="&#xe93b;" glyph-name="amazon" data-tags="amazon" d="M595.592 593.493v29.227c-97.493 0-200.533-20.907-200.533-135.765 0-58.368 30.208-97.792 82.005-97.792 37.76 0 71.851 23.339 93.269 61.355 26.453 46.72 25.216 90.411 25.216 142.976zM731.485 264.747c-8.917-8.064-21.845-8.576-31.787-3.157-44.885 37.205-52.821 54.443-77.397 89.856-73.984-75.392-126.379-98.005-222.251-98.005-113.493 0-201.856 70.016-201.856 210.133 0 109.44 59.349 183.851 143.787 220.331 73.173 32.171 175.36 38.016 253.525 46.72v17.493c0 32.128 2.56 70.059-16.341 97.877-16.427 24.704-47.957 34.987-75.733 34.987-51.413 0-97.152-26.368-108.373-80.939-2.304-12.16-11.136-24.192-23.424-24.832l-130.603 14.208c-11.051 2.389-23.381 11.349-20.139 28.16 30.037 158.549 173.227 206.421 301.483 206.421 65.579 0 151.339-17.493 203.008-67.157 65.621-61.269 59.392-143.019 59.392-232.021v-210.048c0-63.189 26.283-90.88 50.859-124.971 8.704-12.245 10.539-26.88-0.427-35.797-27.605-23.083-76.544-65.579-103.381-89.557l-0.341 0.299zM883.336 179.925c-117.248-62.805-244.693-93.056-360.661-93.056-171.819 0-338.219 59.435-472.789 158.123-11.819 8.619-20.523-6.571-10.709-17.749 124.8-141.909 289.536-227.243 472.576-227.243 130.603 0 282.197 51.797 386.816 149.077 17.323 16.085 2.475 40.32-15.232 30.848zM911.923 85.376c-3.883-9.685 4.437-13.653 13.227-6.272 57.131 47.787 71.893 147.883 60.203 162.304-11.605 14.336-111.445 26.709-172.373-16.085-9.387-6.571-7.765-15.659 2.645-14.379 34.347 4.096 110.72 13.312 124.288-4.181 13.611-17.493-15.147-89.344-27.989-121.387z" />
<glyph unicode="&#xe93c;" glyph-name="more_vert" data-tags="more_vert" d="M512 682.667c46.933 0 85.333 38.4 85.333 85.333s-38.4 85.333-85.333 85.333-85.333-38.4-85.333-85.333 38.4-85.333 85.333-85.333zM512 597.333c-46.933 0-85.333-38.4-85.333-85.333s38.4-85.333 85.333-85.333 85.333 38.4 85.333 85.333-38.4 85.333-85.333 85.333zM512 341.333c-46.933 0-85.333-38.4-85.333-85.333s38.4-85.333 85.333-85.333 85.333 38.4 85.333 85.333-38.4 85.333-85.333 85.333z" />
<glyph unicode="&#xe93d;" glyph-name="more_horiz" data-tags="more_horiz" d="M256 597.333c-46.933 0-85.333-38.4-85.333-85.333s38.4-85.333 85.333-85.333 85.333 38.4 85.333 85.333-38.4 85.333-85.333 85.333zM768 597.333c-46.933 0-85.333-38.4-85.333-85.333s38.4-85.333 85.333-85.333 85.333 38.4 85.333 85.333-38.4 85.333-85.333 85.333zM512 597.333c-46.933 0-85.333-38.4-85.333-85.333s38.4-85.333 85.333-85.333 85.333 38.4 85.333 85.333-38.4 85.333-85.333 85.333z" />
<glyph unicode="&#xe93e;" glyph-name="outline-shopping_basket" data-tags="outline-shopping_basket" d="M938.666 619.094h-204.373l-186.88 279.893c-8.107 11.947-21.76 17.92-35.413 17.92s-27.307-5.973-35.413-18.347l-186.88-279.467h-204.373c-23.467 0-42.667-19.2-42.667-42.667 0-3.84 0.427-7.68 1.707-11.52l108.373-395.52c9.813-35.84 42.667-62.293 81.92-62.293h554.667c39.253 0 72.107 26.453 82.347 62.293l108.373 395.52 1.28 11.52c0 23.467-19.2 42.667-42.667 42.667zM511.999 798.294l119.467-179.2h-238.933l119.467 179.2zM789.332 192.427l-554.24-0.427-93.867 341.76h741.973l-93.867-341.333zM511.999 448.427c-46.933 0-85.333-38.4-85.333-85.333s38.4-85.333 85.333-85.333 85.333 38.4 85.333 85.333-38.4 85.333-85.333 85.333z" />
<glyph unicode="&#xe93f;" glyph-name="ok" data-tags="ok" d="M512.019 505.78c140.288 0 253.952 113.664 253.952 253.952s-113.664 253.952-253.952 253.952c-140.288 0.102-253.952-113.562-253.952-253.85-0.102-140.288 113.664-254.054 253.952-254.054zM512.019 884.762c69.018 0 124.928-55.91 124.928-124.928s-55.91-124.928-124.928-124.928c-69.018 0-124.928 55.91-124.928 124.928s55.91 124.928 124.928 124.928zM804.781 474.855c-14.336 28.774-54.067 52.736-106.803 11.162-71.373-56.218-185.958-56.218-185.958-56.218s-114.586 0-185.958 56.218c-52.736 41.574-92.467 17.613-106.803-11.162-25.088-50.176 3.174-74.445 66.97-115.405 54.477-34.918 129.229-48.026 177.562-52.941l-40.346-40.243c-56.832-56.73-111.616-111.616-149.606-149.709-22.733-22.733-22.733-59.597 0-82.33l6.861-6.861c22.733-22.733 59.597-22.733 82.33 0l149.606 149.709c56.832-56.832 111.616-111.616 149.709-149.709 22.733-22.733 59.597-22.733 82.33 0l6.861 6.861c22.733 22.733 22.733 59.597 0 82.33l-190.054 190.157c48.333 5.018 122.368 18.125 176.333 52.736 63.795 40.858 91.955 65.229 66.97 115.405z" />
<glyph unicode="&#xe940;" glyph-name="outline-touch_app" data-tags="outline-touch_app" d="M779.256 471.893l-138.24 69.12c55.040 42.667 90.453 109.227 90.453 184.32 0 129.28-105.387 234.667-234.667 234.667s-234.667-105.387-234.667-234.667c0-90.88 52.053-169.813 128-208.64v-139.093l-82.773 17.493c-4.267 0.853-8.533 1.28-13.653 1.28-22.613 0-43.947-8.96-60.16-25.173l-59.733-60.587 217.173-217.173c18.347-18.773 43.947-29.44 70.4-29.44h268.8c41.813 0 77.227 29.867 84.053 71.253l34.133 200.96c9.387 55.467-18.347 110.080-69.12 135.68zM764.323 350.293l-34.133-200.96h-268.8c-3.84 0-7.253 1.707-10.24 4.267l-157.013 157.013 181.333-37.973v452.693c0 11.947 9.387 21.333 21.333 21.333s21.333-9.387 21.333-21.333v-256h75.093l147.627-73.813c17.067-8.533 26.453-26.88 23.467-45.227zM347.469 725.333c0 82.347 66.987 149.333 149.333 149.333s149.333-66.987 149.333-149.333c0-40.533-16.213-77.227-42.667-104.107v104.107c0 58.88-47.787 106.667-106.667 106.667s-106.667-47.787-106.667-106.667v-104.107c-26.453 26.88-42.667 63.573-42.667 104.107z" />
<glyph unicode="&#xe941;" glyph-name="outline-where_to_vote" data-tags="outline-where_to_vote" d="M512 975.787c-181.885 0-329.95-148.065-329.95-329.95 0-229.728 287.057-550.192 299.43-563.803l30.52-33.82 30.52 33.82c12.373 13.61 299.43 334.075 299.43 563.803 0 181.885-148.065 329.95-329.95 329.95zM512 172.77c-89.911 107.646-247.463 327.064-247.463 473.067 0 136.517 110.946 247.463 247.463 247.463s247.463-110.946 247.463-247.463c0-157.963-175.286-386.042-247.463-473.067zM448.897 556.337l-72.589 73.002-58.567-58.567 131.155-131.155 247.876 247.876-58.154 58.567z" />
<glyph unicode="&#xe942;" glyph-name="outline-location_on" data-tags="outline-location_on" d="M512 976c-179.568 0-324.8-145.232-324.8-324.8 0-243.6 324.8-603.2 324.8-603.2s324.8 359.6 324.8 603.2c0 179.568-145.232 324.8-324.8 324.8zM280.001 651.2c0 128.064 103.936 231.999 231.999 231.999s231.999-103.936 231.999-231.999c0-133.632-133.632-333.615-231.999-458.432-96.512 123.888-231.999 326.192-231.999 458.432zM628 651.2c0-64.065-51.934-116-116-116s-116 51.934-116 116c0 64.065 51.934 116 116 116s116-51.934 116-116z" />
<glyph unicode="&#xe943;" glyph-name="outline-language" data-tags="outline-language" d="M511.573 938.667c-235.52 0-426.24-191.147-426.24-426.667s190.72-426.667 426.24-426.667c235.947 0 427.093 191.147 427.093 426.667s-191.147 426.667-427.093 426.667zM807.253 682.667h-125.867c-13.653 53.333-33.28 104.533-58.88 151.893 78.507-26.88 143.787-81.493 184.747-151.893zM512 851.627c35.413-51.2 63.147-107.947 81.493-168.96h-162.987c18.347 61.013 46.080 117.76 81.493 168.96zM181.76 426.667c-6.827 27.307-11.093 55.893-11.093 85.333s4.267 58.027 11.093 85.333h144.213c-3.413-28.16-5.973-56.32-5.973-85.333s2.56-57.173 5.973-85.333h-144.213zM216.747 341.333h125.867c13.653-53.333 33.28-104.533 58.88-151.893-78.507 26.88-143.787 81.067-184.747 151.893zM342.613 682.667h-125.867c40.96 70.827 106.24 125.013 184.747 151.893-25.6-47.36-45.227-98.56-58.88-151.893zM512 172.373c-35.413 51.2-63.147 107.947-81.493 168.96h162.987c-18.347-61.013-46.080-117.76-81.493-168.96zM611.84 426.667h-199.68c-3.84 28.16-6.827 56.32-6.827 85.333s2.987 57.6 6.827 85.333h199.68c3.84-27.733 6.827-56.32 6.827-85.333s-2.987-57.173-6.827-85.333zM622.507 189.44c25.6 47.36 45.227 98.56 58.88 151.893h125.867c-40.96-70.4-106.24-125.013-184.747-151.893zM698.027 426.667c3.413 28.16 5.973 56.32 5.973 85.333s-2.56 57.173-5.973 85.333h144.213c6.827-27.307 11.093-55.893 11.093-85.333s-4.267-58.027-11.093-85.333h-144.213z" />
<glyph unicode="&#xe944;" glyph-name="outline-chat" data-tags="outline-chat" d="M844.8 928.001h-665.601c-45.76 0-83.2-37.44-83.2-83.2v-748.8l166.4 166.4h582.4c45.76 0 83.2 37.44 83.2 83.2v499.2c0 45.76-37.44 83.2-83.2 83.2zM844.8 345.6h-582.4l-83.2-83.2v582.4h665.601v-499.2z" />
<glyph unicode="&#xe945;" glyph-name="outline-announcement" data-tags="outline-announcement" d="M844.801 928h-665.601c-45.76 0-83.2-37.44-83.2-83.2v-748.8l166.4 166.4h582.4c45.76 0 83.2 37.44 83.2 83.2v499.2c0 45.76-37.44 83.2-83.2 83.2zM844.801 345.6h-616.929l-48.672-48.672v547.872h665.601v-499.2zM470.401 803.2h83.2v-249.6h-83.2zM470.401 470.4h83.2v-83.2h-83.2z" />
<glyph unicode="&#xe946;" glyph-name="outline-support" data-tags="outline-support" d="M490.667 30.080v153.6c-213.76 11.093-384 188.587-384 404.907 0 223.573 181.758 405.333 405.333 405.333s405.333-181.758 405.333-405.333c0-211.2-146.773-423.68-365.653-529.067l-61.013-29.44zM512.001 908.587c-176.638 0-320-143.36-320-320s143.36-320 320-320h64v-98.133c155.307 98.133 256 259.413 256 418.133 0 176.638-143.36 320-320 320zM469.336 417.921h85.333v-85.333h-85.333zM554.667 481.92h-85.333c0 138.667 128 128 128 213.333 0 46.933-38.4 85.333-85.333 85.333s-85.333-38.4-85.333-85.333h-85.333c0 94.293 76.373 170.667 170.667 170.667s170.667-76.373 170.667-170.667c0-106.667-128-117.334-128-213.333z" />
<glyph unicode="&#xe947;" glyph-name="outline-new_releases" data-tags="outline-new_releases" d="M981.334 512.213l-104.107 118.613 14.507 157.013-154.027 34.987-80.64 135.68-145.067-62.293-145.067 62.293-80.64-135.68-154.027-34.56 14.507-157.013-104.107-119.040 104.107-118.613-14.507-157.44 154.027-34.987 80.64-135.68 145.067 62.72 145.067-62.293 80.64 135.68 154.027 34.987-14.507 157.013 104.107 118.613zM788.908 422.186l11.093-119.040-116.907-26.453-61.013-102.827-110.080 47.36-110.080-47.36-61.013 102.827-116.907 26.453 11.093 119.467-78.933 89.6 78.933 90.453-11.093 118.613 116.907 26.027 61.013 102.827 110.080-46.933 110.080 47.36 61.013-102.827 116.907-26.453-11.093-119.040 78.933-90.027-78.933-90.027zM469.334 384.213h85.333v-85.333h-85.333zM469.334 725.546h85.333v-256h-85.333z" />
<glyph unicode="&#xe948;" glyph-name="outline-thumb_up" data-tags="outline-thumb_up" d="M384 85.333h384c35.413 0 65.707 21.333 78.507 52.053l128.853 300.8c3.84 9.813 5.973 20.053 5.973 31.147v85.333c0 46.933-38.4 85.333-85.333 85.333h-269.227l40.533 194.987 1.28 13.653c0 17.493-7.253 33.707-18.773 45.227l-45.227 44.8-281.173-281.173c-15.36-15.36-24.747-36.693-24.747-60.16v-426.667c0-46.933 38.4-85.333 85.333-85.333zM384 597.333l185.173 185.173-57.173-227.84h384v-85.333l-128-298.667h-384v426.667zM42.667 597.333h170.667v-512h-170.667z" />
<glyph unicode="&#xe949;" glyph-name="outline-headset_mic" data-tags="outline-headset_mic" d="M810.667 426.667v-170.667h-85.333v170.667h85.333zM298.667 426.667v-170.667h-42.667c-23.467 0-42.667 19.2-42.667 42.667v128h85.333zM512 981.333c-212.053 0-384-171.947-384-384v-298.667c0-70.827 57.173-128 128-128h128v341.333h-170.667v85.333c0 165.12 133.547 298.667 298.667 298.667s298.667-133.547 298.667-298.667v-85.333h-170.667v-341.333h170.667v-42.667h-298.667v-85.333h256c70.827 0 128 57.173 128 128v426.667c0 212.053-171.947 384-384 384z" />
<glyph unicode="&#xe94a;" glyph-name="outline-stars" data-tags="outline-stars" d="M511.584 928c-229.632 0-415.584-186.368-415.584-416s185.952-416 415.584-416c230.048 0 416.415 186.368 416.415 416s-186.368 416-416.415 416zM822.752 630.143l-208.416 17.888-83.2 195.936c133.536-7.904 245.856-94.432 291.615-213.824zM611.84 369.728l-99.84 59.904-99.424-59.904 26.208 113.151-87.776 76.128 115.647 9.984 45.344 106.911 45.344-106.496 115.647-9.984-87.776-76.128 26.624-113.568zM492.864 843.968l-83.2-196.352-208.832-17.888c45.76 119.808 158.079 206.751 292.032 214.239zM179.201 512c0 26.624 3.328 52.416 9.568 77.376l157.664-136.448-46.176-197.6c-74.048 61.152-121.056 153.504-121.056 256.671zM338.945 228.288l173.055 104.416 173.055-104c-50.752-31.2-109.824-49.504-173.472-49.504-63.232 0-122.304 18.304-172.64 49.088zM723.743 255.329l-46.176 197.6 157.664 136.448c5.824-24.544 9.568-50.752 9.568-77.376 0-103.168-47.424-195.519-121.056-256.671z" />
<glyph unicode="&#xe94b;" glyph-name="outline-watch" data-tags="outline-watch" d="M610.559 938.667l17.493-105.813c-36.267 13.227-75.093 20.48-116.053 20.48-40.533 0-79.787-7.253-115.627-20.053l17.493 105.387h196.693zM628.052 191.147l-17.493-105.813h-196.693l-17.493 105.387c35.84-12.8 75.093-20.053 115.627-20.053 40.96 0 79.787 7.253 116.053 20.48zM682.666 1024h-341.333l-40.533-244.48c-79.36-62.293-130.133-158.72-130.133-267.52s50.773-205.227 130.133-267.52l40.533-244.48h341.333l40.96 244.48c78.933 62.293 129.707 159.147 129.707 267.52s-50.773 205.227-129.707 267.52l-40.96 244.48zM511.999 256c-141.227 0-256 114.773-256 256s114.773 256 256 256 256-114.773 256-256-114.773-256-256-256z" />
<glyph unicode="&#xe94c;" glyph-name="outline-local_offer" data-tags="outline-local_offer" d="M918.512 530.144l-388.8 388.8c-15.552 15.552-37.152 25.056-60.912 25.056h-302.4c-47.52 0-86.4-38.88-86.4-86.4v-302.4c0-23.76 9.504-45.36 25.488-61.344l388.8-388.8c15.552-15.552 37.152-25.056 60.912-25.056s45.36 9.504 60.912 25.488l302.4 302.4c15.984 15.552 25.488 37.152 25.488 60.912s-9.936 45.792-25.488 61.344zM555.202 165.968l-388.8 389.232v302.4h302.4v0.432l388.8-388.8-302.4-303.264zM339.201 749.6c0-35.788-29.011-64.8-64.8-64.8s-64.8 29.012-64.8 64.8c0 35.788 29.012 64.8 64.8 64.8s64.8-29.012 64.8-64.8z" />
<glyph unicode="&#xe94d;" glyph-name="outline-verified_user" data-tags="outline-verified_user" d="M512 981.333l-384-170.667v-256c0-236.8 163.84-458.24 384-512 220.16 53.76 384 275.2 384 512v256l-384 170.667zM810.667 554.667c0-192.853-127.147-370.773-298.667-423.68-171.52 52.907-298.667 230.827-298.667 423.68v200.533l298.667 132.693 298.667-132.693v-200.533zM316.16 529.493l-60.16-60.16 170.667-170.667 341.333 341.333-60.16 60.587-281.173-281.173z" />
<glyph unicode="&#xe94e;" glyph-name="outline-archive-24px" data-tags="outline-archive-24px" d="M876.373 800.853l-59.307 71.68c-11.52 14.507-29.013 23.467-49.067 23.467h-512c-20.053 0-37.547-8.96-49.493-23.467l-58.88-71.68c-12.373-14.507-19.627-33.707-19.627-54.187v-533.333c0-46.933 38.4-85.333 85.333-85.333h597.333c46.933 0 85.333 38.4 85.333 85.333v533.333c0 20.48-7.253 39.68-19.627 54.187zM266.24 810.667h491.52l34.56-41.387h-560.213l34.133 41.387zM213.333 213.333v469.333h597.333v-469.333h-597.333zM573.867 597.333h-123.733v-128h-108.8l170.667-170.667 170.667 170.667h-108.8z" />
<glyph unicode="&#xe94f;" glyph-name="outline-card_giftcard-24px" data-tags="outline-card_giftcard-24px" d="M853.333 768h-93.013c4.693 13.227 7.68 27.733 7.68 42.667 0 70.827-57.173 128-128 128-44.8 0-83.627-23.040-106.667-57.6l-21.333-28.587-21.333 29.013c-23.040 34.133-61.867 57.173-106.667 57.173-70.827 0-128-57.173-128-128 0-14.933 2.987-29.44 7.68-42.667h-93.013c-47.36 0-84.907-37.973-84.907-85.333l-0.427-469.333c0-47.36 37.973-85.333 85.333-85.333h682.667c47.36 0 85.333 37.973 85.333 85.333v469.333c0 47.36-37.973 85.333-85.333 85.333zM640 853.333c23.467 0 42.667-19.2 42.667-42.667s-19.2-42.667-42.667-42.667-42.667 19.2-42.667 42.667 19.2 42.667 42.667 42.667zM384 853.333c23.467 0 42.667-19.2 42.667-42.667s-19.2-42.667-42.667-42.667-42.667 19.2-42.667 42.667 19.2 42.667 42.667 42.667zM853.333 213.333h-682.667v85.333h682.667v-85.333zM853.333 426.667h-682.667v256h216.747l-88.747-120.747 69.12-49.92 144.213 196.267 144.213-196.267 69.12 49.92-88.747 120.747h216.747v-256z" />
<glyph unicode="&#xe950;" glyph-name="outline-work_outline-24px" data-tags="outline-work_outline-24px" d="M597.333 768v85.333h-170.667v-85.333h170.667zM170.667 682.667v-469.333h682.667v469.333h-682.667zM853.333 768c47.36 0 85.333-37.973 85.333-85.333v-469.333c0-47.36-37.973-85.333-85.333-85.333h-682.667c-47.36 0-85.333 37.973-85.333 85.333l0.427 469.333c0 47.36 37.547 85.333 84.907 85.333h170.667v85.333c0 47.36 37.973 85.333 85.333 85.333h170.667c47.36 0 85.333-37.973 85.333-85.333v-85.333h170.667z" />
<glyph unicode="&#xe951;" glyph-name="outline-tv-24px" data-tags="outline-tv-24px" d="M896 896h-768c-46.933 0-85.333-38.4-85.333-85.333v-512c0-46.933 38.4-85.333 85.333-85.333h213.333v-85.333h341.333v85.333h213.333c46.933 0 84.907 38.4 84.907 85.333l0.427 512c0 46.933-38.4 85.333-85.333 85.333zM896 298.667h-768v512h768v-512z" />
<glyph unicode="&#xe952;" glyph-name="outline" data-tags="outline" d="M853.334 256c46.933 0 85.333 38.4 85.333 85.333v426.667c0 46.933-38.4 85.333-85.333 85.333h-682.667c-46.933 0-85.333-38.4-85.333-85.333v-426.667c0-46.933 38.4-85.333 85.333-85.333h-170.667v-85.333h1024v85.333h-170.667zM170.668 768h682.667v-426.667h-682.667v426.667z" />
<glyph unicode="&#xe953;" glyph-name="outline-email-24px" data-tags="outline-email-24px" d="M938.667 768c0 46.933-38.4 85.333-85.333 85.333h-682.667c-46.933 0-85.333-38.4-85.333-85.333v-512c0-46.933 38.4-85.333 85.333-85.333h682.667c46.933 0 85.333 38.4 85.333 85.333v512zM853.333 768l-341.333-213.333-341.333 213.333h682.667zM853.333 256h-682.667v426.667l341.333-213.333 341.333 213.333v-426.667z" />
<glyph unicode="&#xe954;" glyph-name="telegram" data-tags="telegram" d="M18.087 530.28l235.95-88.064 91.327-293.707c5.844-18.811 28.846-25.764 44.114-13.281l131.523 107.22c13.786 11.233 33.423 11.793 47.831 1.335l237.22-172.227c16.333-11.872 39.472-2.922 43.568 16.814l173.776 835.895c4.471 21.559-16.712 39.543-37.239 31.604l-968.346-373.559c-23.897-9.216-23.689-43.049 0.276-52.029zM330.646 489.095l461.135 284.013c8.288 5.089 16.814-6.117 9.697-12.718l-380.57-353.758c-13.377-12.452-22.006-29.116-24.45-47.203l-12.964-96.072c-1.717-12.827-19.736-14.1-23.276-1.686l-49.859 175.189c-5.711 19.982 2.611 41.325 20.285 52.234z" />
<glyph unicode="&#xe955;" glyph-name="outline-local_shipping" data-tags="outline-local_shipping" d="M853.333 682.666h-128v170.667h-597.333c-46.933 0-85.333-38.4-85.333-85.333v-469.333h85.333c0-70.827 57.173-128 128-128s128 57.173 128 128h256c0-70.827 57.173-128 128-128s128 57.173 128 128h85.333v213.333l-128 170.667zM832 618.666l83.627-106.667h-190.293v106.667h106.667zM256 255.999c-23.467 0-42.667 19.2-42.667 42.667s19.2 42.667 42.667 42.667 42.667-19.2 42.667-42.667-19.2-42.667-42.667-42.667zM350.72 383.999c-23.467 26.027-56.747 42.667-94.72 42.667s-71.253-16.64-94.72-42.667h-33.28v384h512v-384h-289.28zM768 255.999c-23.467 0-42.667 19.2-42.667 42.667s19.2 42.667 42.667 42.667 42.667-19.2 42.667-42.667-19.2-42.667-42.667-42.667z" />
<glyph unicode="&#xe956;" glyph-name="local_mall" data-tags="local_mall" d="M810.665 746.667h-85.332c0 117.759-95.574 213.333-213.333 213.333s-213.333-95.574-213.333-213.333h-85.332c-46.934 0-85.332-38.402-85.332-85.332v-511.999c0-46.934 38.402-85.332 85.332-85.332h597.335c46.934 0 85.332 38.402 85.332 85.332v511.999c0 46.934-38.402 85.332-85.332 85.332zM511.999 874.669c70.826 0 128.002-57.173 128.002-128.002h-256c0 70.826 57.173 128.002 128.002 128.002zM810.665 149.332h-597.335v511.999h597.335v-511.999zM511.999 490.667c-70.826 0-128.002 57.173-128.002 128.002h-85.332c0-117.759 95.574-213.333 213.333-213.333s213.333 95.574 213.333 213.333h-85.332c0-70.826-57.173-128.002-128.002-128.002z" />
<glyph unicode="&#xe957;" glyph-name="play_circle_outline" data-tags="play_circle_outline" d="M425.6 317.6l259.2 194.4-259.2 194.4zM512 944c-238.464 0-432-193.536-432-432s193.536-432 432-432 432 193.536 432 432-193.536 432-432 432zM512 166.401c-190.512 0-345.599 155.087-345.599 345.599s155.087 345.599 345.599 345.599 345.599-155.087 345.599-345.599-155.087-345.599-345.599-345.599z" />
<glyph unicode="&#xe958;" glyph-name="local_activity-24px" data-tags="local_activity-24px" d="M984 606.4v188.8c0 51.92-42.48 94.4-94.4 94.4h-755.2c-51.92 0-93.928-42.48-93.928-94.4v-188.8c51.92 0 93.928-42.48 93.928-94.4s-42.008-94.4-94.4-94.4v-188.8c0-51.92 42.48-94.4 94.4-94.4h755.2c51.92 0 94.4 42.48 94.4 94.4v188.8c-51.92 0-94.4 42.48-94.4 94.4s42.48 94.4 94.4 94.4zM889.599 675.312c-56.168-32.568-94.4-93.928-94.4-163.312s38.232-130.744 94.4-163.312v-119.888h-755.2v119.888c56.168 32.568 94.4 93.928 94.4 163.312 0 69.856-37.76 130.744-93.928 163.312l-0.472 119.888h755.2v-119.888zM373.704 323.2l138.296 88.736 138.296-88.736-42.008 158.592 126.968 103.84-163.784 9.912-59.472 152.456-59.944-151.984-163.784-9.912 126.968-103.84z" />
<glyph unicode="&#xe959;" glyph-name="notifications_none-24px" data-tags="notifications_none-24px" d="M511.998 80c48.739 0 88.615 39.877 88.615 88.615h-177.232c0-48.739 39.877-88.615 88.615-88.615zM777.845 345.848v221.539c0 136.025-72.221 249.898-199.383 280.026v30.128c0 36.775-29.687 66.461-66.461 66.461s-66.461-29.687-66.461-66.461v-30.128c-126.722-30.128-199.383-143.557-199.383-280.026v-221.539l-88.615-88.615v-44.308h708.926v44.308l-88.615 88.615zM689.23 301.541h-354.463v265.847c0 109.882 66.905 199.383 177.232 199.383s177.232-89.501 177.232-199.383v-265.847z" />
<glyph unicode="&#xe95a;" glyph-name="tiktok" data-tags="tiktok" d="M640 810.667v42.667h-85.333v-469.333c0-70.594-57.406-128-128-128s-128 57.406-128 128 57.406 128 128 128h42.667v85.333h-42.667c-117.635 0-213.333-95.698-213.333-213.333s95.698-213.333 213.333-213.333 213.333 95.698 213.333 213.333v256.406c35.708-26.906 79.937-43.073 128-43.073h42.667v85.333h-42.667c-70.594 0-128 57.406-128 128zM0 0h1024v1024h-1024zM85.333 938.667h853.333v-853.333h-853.333z" />
<glyph unicode="&#xe95b;" glyph-name="local_phone" data-tags="local_phone" d="M259.629 835.557c2.771-41.139 9.709-81.35 20.8-119.717l-55.469-55.469c-18.95 55.469-30.97 114.17-35.13 175.181h69.797zM715.378 279.963c39.29-11.091 79.501-18.029 120.178-20.8v-68.87c-61.011 4.16-119.717 16.179-175.643 34.669l55.469 55.003zM304 927.999h-161.778c-25.421 0-46.221-20.8-46.221-46.221 0-434.028 351.749-785.777 785.777-785.777 25.421 0 46.221 20.8 46.221 46.221v161.317c0 25.421-20.8 46.221-46.221 46.221-57.317 0-113.243 9.243-165.011 26.349-4.621 1.85-9.709 2.31-14.33 2.31-12.019 0-23.571-4.621-32.819-13.403l-101.69-101.69c-130.81 67.021-238.043 173.797-304.603 304.603l101.69 101.69c12.941 12.941 16.64 30.97 11.557 47.149-17.101 51.77-26.349 107.237-26.349 165.011 0 25.421-20.8 46.221-46.221 46.221z" />
<glyph unicode="&#xe95c;" glyph-name="timelapse" data-tags="timelapse_black_24dp" d="M692.907 692.907c-49.92 49.92-115.2 75.093-180.907 75.093v-256l-180.907-180.907c99.84-99.84 261.973-99.84 362.24 0 99.84 99.84 99.84 261.973-0.427 361.813zM512 938.667c-235.52 0-426.667-191.147-426.667-426.667s191.147-426.667 426.667-426.667 426.667 191.147 426.667 426.667-191.147 426.667-426.667 426.667zM512 170.667c-188.587 0-341.333 152.747-341.333 341.333s152.747 341.333 341.333 341.333 341.333-152.747 341.333-341.333-152.747-341.333-341.333-341.333z" />
<glyph unicode="&#xe95d;" glyph-name="camera" data-tags="camera_alt_black_24dp" d="M648.533 512c0-75.405-61.128-136.533-136.533-136.533s-136.533 61.128-136.533 136.533c0 75.405 61.128 136.533 136.533 136.533s136.533-61.128 136.533-136.533zM384 938.667l-78.080-85.333h-135.253c-46.933 0-85.333-38.4-85.333-85.333v-512c0-46.933 38.4-85.333 85.333-85.333h682.667c46.933 0 85.333 38.4 85.333 85.333v512c0 46.933-38.4 85.333-85.333 85.333h-135.253l-78.080 85.333h-256zM512 298.667c-117.76 0-213.333 95.573-213.333 213.333s95.573 213.333 213.333 213.333 213.333-95.573 213.333-213.333-95.573-213.333-213.333-213.333z" />
<glyph unicode="&#xe95e;" glyph-name="camer-g" data-tags="camera_black_24dp" d="M401.067 576l203.52 352.427c-29.867 6.4-60.587 10.24-92.587 10.24-102.4 0-196.267-36.267-269.653-96l156.16-270.933 2.56 4.267zM919.040 640c-39.253 124.587-134.4 224.427-256 270.507l-156.16-270.507h412.16zM930.133 597.333h-319.573l12.373-21.333 203.093-352c69.973 75.947 112.64 176.64 112.64 288 0 29.44-2.987 57.6-8.533 85.333zM364.373 512l-166.4 288c-69.547-75.947-112.64-176.64-112.64-288 0-29.44 2.987-57.6 8.533-85.333h319.573l-49.067 85.333zM104.96 384c39.253-124.587 134.4-224.427 256-270.507l156.16 270.507h-412.16zM585.813 384l-166.4-288.427c29.867-6.4 60.587-10.24 92.587-10.24 102.4 0 196.267 36.267 269.653 96l-156.16 270.933-39.68-68.267z" />
<glyph unicode="&#xe95f;" glyph-name="straighten" data-tags="straighten_black_24dp" d="M896 768h-768c-46.933 0-85.333-38.4-85.333-85.333v-341.333c0-46.933 38.4-85.333 85.333-85.333h768c46.933 0 85.333 38.4 85.333 85.333v341.333c0 46.933-38.4 85.333-85.333 85.333zM896 341.333h-768v341.333h85.333v-170.667h85.333v170.667h85.333v-170.667h85.333v170.667h85.333v-170.667h85.333v170.667h85.333v-170.667h85.333v170.667h85.333v-341.333z" />
<glyph unicode="&#xe960;" glyph-name="square_foot" data-tags="square_foot_black_24dp" d="M753.493 270.507l-45.227-45.227-30.293 30.293 45.227 45.227-82.773 82.773-45.227-45.227-30.293 30.293 45.227 45.227-82.773 82.773-45.227-45.227-30.293 30.293 45.227 45.227-83.2 83.2-45.227-45.227-30.293 30.293 45.227 45.227-82.773 82.773-45.227-45.227-30.293 30.293 45.227 45.227-99.84 99.84v-597.333c0-46.933 38.4-85.333 85.333-85.333h597.333l-99.84 99.84zM298.667 298.667v245.76l245.76-245.76h-245.76z" />
<glyph unicode="&#xe961;" glyph-name="addchart" data-tags="addchart_black_24dp" d="M938.667 810.667v-85.333h-128v-128h-85.333v128h-128v85.333h128v128h85.333v-128h128zM810.667 213.333h-597.333v597.333h256v85.333h-256c-46.933 0-85.333-38.4-85.333-85.333v-597.333c0-46.933 38.4-85.333 85.333-85.333h597.333c46.933 0 85.333 38.4 85.333 85.333v256h-85.333v-256zM640 469.333v-170.667h85.333v170.667h-85.333zM469.333 298.667h85.333v341.333h-85.333v-341.333zM384 298.667v256h-85.333v-256h85.333z" />
<glyph unicode="&#xe962;" glyph-name="calendar" data-tags="calendar_view_month_black_24dp" d="M853.333 853.333h-682.667c-46.933 0-85.333-38.4-85.333-85.333v-512c0-46.933 38.4-85.333 85.333-85.333h682.667c46.933 0 85.333 38.4 85.333 85.333v512c0 46.933-38.4 85.333-85.333 85.333zM341.333 554.667h-170.667v213.333h170.667v-213.333zM597.333 554.667h-170.667v213.333h170.667v-213.333zM853.333 554.667h-170.667v213.333h170.667v-213.333zM341.333 256h-170.667v213.333h170.667v-213.333zM597.333 256h-170.667v213.333h170.667v-213.333zM853.333 256h-170.667v213.333h170.667v-213.333z" />
<glyph unicode="&#xe963;" glyph-name="Home" data-tags="Home" d="M493.445 981.955c-22.897-3.359-48.517-14.070-64.287-26.481-102.728-80.855-293.048-235.684-299.786-244.081-23.101-27.525-39.69-60.703-49.357-98.529-4.608-18.268-4.608-19.333-4.608-195.789 0-197.263-0.41-189.481 14.275-228.966 10.301-27.32 25.027-50.217 47.063-73.523 39.69-41.8 87.593-65.556 143.688-71.434 28.774-2.949 437.146-2.949 465.92 0 96.42 9.871 173.507 76.247 199.987 172.257l4.833 17.859 0.84 172.257c0.41 121.836 0 177.091-1.679 189.051-6.083 42.23-25.211 84.029-54.19 118.477-5.673 6.717-67.011 57.344-150.405 123.945-77.312 61.972-144.097 115.323-148.091 118.682-9.871 7.782-34.038 19.333-48.742 23.101-16.179 3.994-40.325 5.468-55.46 3.174zM540.303 885.658c6.758-2.15 15.462-6.472 19.354-9.38 3.891-2.929 65.597-53.002 137.359-111.084 99.041-80.589 132.137-108.544 137.933-116.388 15.667-22.282 26.706-50.278 30.188-76.882 1.352-10.568 1.946-65.72 1.352-165.458-0.778-169.964 0.184-159.805-17.224-195.604-8.704-17.797-12.37-23.081-27.668-38.339-20.132-20.541-36.372-30.904-62.874-40.284l-18.371-6.472h-221.532c-247.255 0-230.236-0.983-260.997 13.885-52.224 24.842-83.968 71.393-89.375 130.273-1.167 13.885-1.741 75.1-1.167 162.918 0.778 152.965 0.594 150.815 12.001 179.569 6.001 14.868 17.408 33.833 27.668 45.363 3.871 4.116 61.338 51.651 127.877 105.411 66.54 53.576 124.969 101.13 129.823 105.411 22.262 19.599 48.947 25.661 75.653 17.060zM347.996 291.963c-26.112-14.643-27.382-55.951-2.048-71.475 7.926-4.874 19.19-5.161 168.407-5.161s160.481 0.287 168.407 5.161c25.334 15.503 24.064 56.832-2.048 71.475-8.192 4.874-21.504 5.161-166.359 5.161s-158.167-0.266-166.359-5.161z" />
<glyph unicode="&#xe964;" glyph-name="arrow_back_black" data-tags="arrow_back_black" d="M853.333 554.667h-519.253l238.507 238.507-60.587 60.16-341.333-341.333 341.333-341.333 60.16 60.16-238.080 238.507h519.253v85.333z" />
<glyph unicode="&#xe965;" glyph-name="local_mall_black" data-tags="local_mall_black" d="M810.667 768h-85.333c0 117.76-95.573 213.333-213.333 213.333s-213.333-95.573-213.333-213.333h-85.333c-46.933 0-84.907-38.4-84.907-85.333l-0.427-512c0-46.933 38.4-85.333 85.333-85.333h597.333c46.933 0 85.333 38.4 85.333 85.333v512c0 46.933-38.4 85.333-85.333 85.333zM512 896c70.827 0 128-57.173 128-128h-256c0 70.827 57.173 128 128 128zM512 469.333c-117.76 0-213.333 95.573-213.333 213.333h85.333c0-70.827 57.173-128 128-128s128 57.173 128 128h85.333c0-117.76-95.573-213.333-213.333-213.333z" />
<glyph unicode="&#xe966;" glyph-name="tune" data-tags="tune" d="M963.765 783.059h-120.471c-6.024 0-6.024 0-12.047 0-24.094 72.282-90.353 120.471-168.659 120.471s-144.565-54.212-168.659-120.471c-6.024 0-6.024 0-12.047 0h-421.647c-36.141 0-60.235-24.094-60.235-60.235s24.094-60.235 60.235-60.235h421.647c6.024 0 6.024 0 12.047 0 24.094-66.259 90.353-120.471 168.659-120.471s144.565 54.212 168.659 120.471c6.024 0 6.024 0 12.047 0h120.471c36.141 0 60.235 24.094 60.235 60.235s-24.094 60.235-60.235 60.235zM662.588 632.471c-48.188 0-90.353 42.165-90.353 90.353s42.165 90.353 90.353 90.353 90.353-42.165 90.353-90.353-42.165-90.353-90.353-90.353zM963.765 361.412h-421.647c-6.024 0-6.024 0-12.047 0-24.094 66.259-90.353 120.471-168.659 120.471s-144.565-54.212-168.659-120.471c-6.024 0-6.024 0-12.047 0h-120.471c-36.141 0-60.235-24.094-60.235-60.235s24.094-60.235 60.235-60.235h120.471c6.024 0 6.024 0 12.047 0 24.094-72.282 90.353-120.471 168.659-120.471s144.565 54.212 168.659 120.471c6.024 0 6.024 0 12.047 0h421.647c36.141 0 60.235 24.094 60.235 60.235s-24.094 60.235-60.235 60.235zM361.412 210.824c-48.188 0-90.353 42.165-90.353 90.353s42.165 90.353 90.353 90.353 90.353-42.165 90.353-90.353-42.165-90.353-90.353-90.353z" />
<glyph unicode="&#xe967;" glyph-name="cart_shopping_icon" data-tags="cart_shopping_icon" d="M747.171 290.304c-58.368 0-106.496-47.104-106.496-106.496 0-58.368 47.104-106.496 106.496-106.496 58.368 0 106.496 47.104 106.496 106.496 0 0 0 0 0 0-1.024 58.368-48.128 106.496-106.496 106.496zM934.563 798.208c-2.048 0-5.12 1.024-8.192 1.024h-645.12l-10.24 68.608c-6.144 45.056-45.056 78.848-91.136 78.848h-82.944c-22.528 0-40.96-18.432-40.96-40.96s18.432-40.96 40.96-40.96h82.944c5.12 0 9.216-4.096 10.24-9.216l63.488-432.128c8.192-54.272 55.296-95.232 110.592-95.232h425.984c53.248 0 99.328 37.888 110.592 90.112l66.56 332.8c4.096 21.504-10.24 43.008-32.768 47.104zM380.579 290.304c-59.392-3.072-104.448-52.224-102.4-110.592 2.048-56.32 48.128-101.376 104.448-101.376h2.048c58.368 3.072 104.448 52.224 101.376 110.592-2.048 56.32-49.152 101.376-105.472 101.376z" />
<glyph unicode="&#xe968;" glyph-name="cart_shopping_icon2" data-tags="cart_shopping_icon2" d="M1010.436 769.376c-10.255 11.801-25.287 19.219-42.052 19.22h-724.545l-40.801 69.515c-6.909 11.627-17.618 20.379-30.384 24.628l-0.393 0.113-99.442 32.323c-29.199 9.494-60.588-6.49-70.081-35.703-9.497-29.212 6.487-60.592 35.7-70.086l79.357-25.794 271.471-462.531c9.84-16.548 27.627-27.464 47.964-27.466h475.539c27.635 0 51.080 20.291 55.043 47.641l55.616 383.76c0.365 2.395 0.574 5.159 0.574 7.971 0 13.954-5.137 26.709-13.623 36.476l0.058-0.068zM751.156 502.928h-59.168v-59.16c0-21.081-17.085-38.173-38.166-38.173s-38.169 17.090-38.169 38.173v59.16h-59.156c-21.081 0-38.173 17.088-38.173 38.173 0 21.081 17.092 38.173 38.173 38.173h59.156v59.16c0 21.081 17.088 38.173 38.169 38.173s38.166-17.090 38.166-38.173v-59.16h59.168c21.081 0 38.169-17.092 38.169-38.173 0.003-21.082-17.085-38.173-38.169-38.173zM578.301 182.365c0-42.127-34.151-76.278-76.278-76.278s-76.278 34.151-76.278 76.278c0 42.127 34.151 76.278 76.278 76.278s76.278-34.151 76.278-76.278zM827.95 258.642c-42.141 0-76.28-34.155-76.28-76.278 0-42.126 34.14-76.275 76.28-76.275 42.128 0 76.271 34.148 76.271 76.275 0 42.123-34.142 76.278-76.271 76.278z" />
<glyph unicode="&#xe969;" glyph-name="tick" data-tags="tick" d="M512 1007.085c-273.122 0-495.085-221.963-495.085-495.085s221.963-495.085 495.085-495.085 495.085 221.963 495.085 495.085c-0.825 273.947-221.963 495.085-495.085 495.085zM842.056 663.826l-391.117-416.696h-10.727l-248.367 238.466v10.727l79.214 84.99h10.727l154.301-149.351h10.727l301.176 323.455h10.727l83.339-80.039v-11.552z" />
<glyph unicode="&#xe96a;" glyph-name="addchart_black" data-tags="addchart_black_24dp (1)" d="M298.7 554.7h85.3v-256h-85.3v256zM640 469.3h85.3v-170.7h-85.3v170.7zM469.3 640h85.3v-341.3h-85.3v341.3zM810.7 213.3h-597.4v597.4h256v85.3h-256c-46.9 0-85.3-38.4-85.3-85.3v-597.3c0-46.9 38.4-85.3 85.3-85.3h597.3c46.9 0 85.3 38.4 85.3 85.3v256h-85.3v-256.1h0.1zM785.5 547c65.1 0 121.2 23.5 168.1 70.4s70.4 102.5 70.4 166.8c0 66-23.5 122.4-70.4 169.4-46.9 46.9-103 70.4-168.1 70.4-66 0-122.2-23.5-168.7-70.4-46.6-46.9-69.8-103.4-69.8-169.4 0-64.3 23.2-119.9 69.8-166.8 46.5-46.9 102.7-70.4 168.7-70.4zM699.2 828.6l49.5-49.5 123.1 120.5 53.3-53.3-176.4-175-102.7 102.8 53.2 54.5z" />
<glyph unicode="&#xe96b;" glyph-name="map" data-tags="map_FILL0_wght500_GRAD0_opsz24" d="M652.8 112.324l-280.533 99.2-185.507-74.528q-25.971-12.614-49.902 2.574t-23.931 44.963v595.2q0 18.69 10.713 33.578 10.714 14.886 28.337 21.426l220.29 76.939 280.533-98.133 184.441 74.528q25.971 11.548 50.204-3.107 24.231-14.656 24.231-44.43v-602.667q0-17.159-11.014-29.612t-27.571-17.925l-220.29-78.005zM616.533 214.633v526.005l-209.067 70.4v-526.005l209.067-70.4zM680.533 214.633l146.041 47.722v534.075l-146.041-55.791v-526.005zM197.426 229.241l146.041 55.792v526.005l-146.041-48.325v-533.472zM680.533 740.638v0zM343.467 811.038v0z" />
<glyph unicode="&#xe96c;" glyph-name="home_page" data-tags="home_page" d="M240.093 197.426h144.324v271.49h255.166v-271.49h144.324v408.162l-271.907 203.779-271.907-203.98v-407.962zM155.594 112.927v534.911l356.406 267.456 357.009-267.456v-534.911h-307.293v278.123h-99.433v-278.123h-306.69z" />
<glyph unicode="&#xe96d;" glyph-name="rocket_launch" data-tags="rocket_launch_FILL0_wght500_GRAD0_opsz24" d="M243.617 604.429l77.333-32.903q13.659 27.060 28.128 52.37t31.884 50.748l-56.162 10.969-81.183-81.183zM398.655 511.559l119.305-118.493q46.331 18.852 96.255 52.905t94.469 78.597q73.392 73.391 115.27 162.678t37.565 167.872q-78.586 4.313-168.278-37.565t-163.084-115.27q-44.545-44.545-78.597-94.469t-52.905-96.255zM591.583 585.995q-24.023 24.022-24.023 58.991t24.023 58.991 59.397 24.023 59.396-24.023q24.023-24.022 24.023-58.991t-24.023-58.991-59.396-24.023-59.397 24.023zM610.574 237.217l81.438 81.183-10.969 56.162q-25.438-17.414-50.748-31.478t-52.37-27.722l32.649-78.145zM951.838 946.25q19.502-139.269-26.469-264.081t-156.65-235.49q-0.51-0.51-1.148-1.276t-1.148-1.275l21.333-106.366q4.777-24.139-2.388-47.212t-24.395-40.302l-183.026-183.026-94.957 222.887-186.481 186.481-222.887 94.957 182.215 183.026q17.229 17.229 40.707 24.395 23.478 7.165 47.617 2.388l106.366-21.333q0.51 0.51 1.148 0.893 0.637 0.383 1.148 0.893 110.678 110.678 235.212 157.31t263.803 27.131zM157.008 341.124q39.885 39.885 96.685 40.418t96.684-39.351q39.885-39.884 39.351-96.684t-40.418-96.685q-28.707-28.707-96.209-49.31-67.501-20.603-179.664-34.516 13.914 112.163 34.389 179.792t49.182 96.336zM226.226 272.974q-10.157-10.157-19.803-35.617-9.647-25.461-13.914-52.476 27.014 4.267 52.476 13.635 25.46 9.367 35.617 19.524 11.78 11.779 12.591 28t-10.967 28q-11.78 11.779-28 11.246t-28-12.313z" />
<glyph unicode="&#xe96e;" glyph-name="location" data-tags="location" d="M511.891 519.050q32.247 0 55.321 22.963 23.072 22.964 23.072 55.212t-22.963 55.321q-22.964 23.072-55.212 23.072t-55.321-22.963q-23.072-22.964-23.072-55.212t22.963-55.321 55.212-23.072zM512 183.468q136.656 125.049 201.87 226.833t65.214 178.693q0 121.053-77.303 198.238t-189.644 77.185-189.78-77.222q-77.44-77.221-77.44-198.333 0-77.047 66.829-178.53t200.255-226.864zM512 72.069q-176.557 150.352-264.070 279.012-87.513 128.658-87.513 237.797 0 164.652 106.007 262.345t245.52 97.693 245.575-97.693 106.063-262.345q0-109.139-87.513-237.797t-264.070-279.012z" />
<glyph unicode="&#xe96f;" glyph-name="where_to_vote" data-tags="where_to_vote_FILL0_wght600_GRAD0_opsz48" d="M472.626 467.988l201.183 201.786-49.485 48.881-151.698-151.698-69.333 69.333-49.484-49.485 118.817-118.817zM512 183.468q136.656 125.049 201.87 226.833t65.214 178.693q0 121.277-77.526 198.35t-189.421 77.073q-111.897 0-189.558-77.11t-77.662-198.445q0-77.047 66.829-178.53t200.255-226.864zM512 72.069q-176.557 150.352-264.070 279.012-87.513 128.658-87.513 237.797 0 164.652 106.007 262.345t245.52 97.693 245.575-97.693 106.063-262.345q0-109.139-87.513-237.797t-264.070-279.012z" />
<glyph unicode="&#xe970;" glyph-name="diamond" data-tags="diamond_FILL0_wght500_GRAD0_opsz24" d="M512 121.878l-431.258 517.612 130.295 260.336h601.924l130.295-260.336-431.258-517.612zM410.412 682.667h203.177l-62.214 124.174h-78.748l-62.214-124.174zM469.333 318.655v278.678h-231.698l231.698-278.678zM554.667 318.655l231.698 278.678h-231.698v-278.678zM708.777 682.667h108.221l-61.959 124.174h-108.476l62.214-124.174zM207.003 682.667h108.221l62.214 124.174h-108.476l-61.959-124.174z" />
<glyph unicode="&#xe971;" glyph-name="workspace_premium" data-tags="workspace_premium_FILL0_wght500_GRAD0_opsz24" d="M408.209 434.876l38.863 127.977-103.234 80.974h127.803l40.359 127.629 40.359-127.629h127.803l-104.046-80.974 38.608-127.977-102.724 79.814-103.791-79.814zM252.174 34.763v330.617q-42.574 46.331-66.377 106.131-23.804 59.801-23.804 127.354 0 146.25 101.878 248.128 101.878 101.877 248.128 101.877t248.128-101.877q101.878-101.878 101.878-248.128 0-67.553-23.804-127.354t-66.377-106.131v-330.617l-259.826 86.095-259.826-86.095zM512 345.924q105.391 0 179.165 73.774t73.774 179.166q0 105.391-73.774 179.165t-179.165 73.774-179.165-73.774-73.774-179.165q0-105.392 73.774-179.166t179.165-73.774zM341.333 165.519l170.667 45.519 170.667-45.519v128.441q-37.588-21.078-80.706-33.090-43.117-12.012-89.961-12.012t-89.961 12.012q-43.118 12.012-80.706 33.090v-128.441z" />
<glyph unicode="&#xe972;" glyph-name="handshake" data-tags="handshake" d="M505.662 149.333q5.133 0 12.066 2.365t11.803 7.235l357.055 358.122q15.046 15.081 23.198 35.13 8.153 20.049 8.153 41.305 0 20.958-8.153 41.835-8.151 20.877-23.198 36.492l-175.118 175.118q-14.47 13.867-33.41 20.8-18.941 6.933-38.173 6.933-18.883 0-37.465-6.631-18.582-6.633-31.846-19.293l-14.979-15.583 82.783-83.246q15.675-17.345 27.85-39.792 12.174-22.446 12.174-49.569 0-45.318-35.739-80.471t-81.804-35.154q-30.076 0-50.087 9.205-20.012 9.206-37.022 26.382l-76.996 76.83-182.214-182.213q-5.333-4.731-7.467-10.927t-2.133-12.933q0-13.473 8.766-22.239 8.765-8.765 22.276-8.765 6.755 0 12.924 3.2 6.167 3.2 10.434 7.467l141.171 141.171 44.8-44.8-140.065-140.052q-5.373-5.386-7.506-12.196-2.133-6.812-2.133-12.992 0-13.102 8.997-22.25t21.797-9.148q6.4 0 12.569 2.667 6.167 2.667 11.072 6.969l139.931 140.532 44.8-44.8-140.655-140.068q-3.716-4.302-6.685-11.158-2.967-6.855-2.967-13.41 0-13.041 9.449-22.521t22.451-9.479q6.5 0 12.134 2.434t10.366 7.166l141.17 141.774 44.8-44.8-141.17-141.171q-4.731-5.333-7.166-12.144t-2.434-11.925q0-15.174 8.533-23.286 8.533-8.111 23.065-8.111zM506.132 71.467q-38.283 0-68.73 26.434t-38.192 66.77q-35.060 5.81-59.895 30.946t-30.771 59.594q-33.855 6.54-58.156 31.305-24.302 24.766-30.841 58.157-40.070 7.745-66.575 37.744-26.503 29.998-26.503 70.347 0 20.513 8.378 41.11 8.379 20.597 22.973 36.167l238.933 238.933 126.378-125.774q8.533-8.533 18.69-13.635 10.156-5.101 20.915-5.101 13.522 0 25.359 12.267t11.836 25.694q0 6.237-4.336 14.839t-12.267 17.136l-153.782 153.786q-13.221 13.217-32.862 19.85-19.641 6.631-40.028 6.631-20.644 0-38.877-6.631-18.231-6.633-30.83-19.744l-156.166-155.051q-13.125-13.727-18.69-30.863-5.566-17.137-6.029-39.745 0.139-18.388 8.905-35.409 8.765-17.020 19.756-31.211l-55.514-55.514q-21.333 20.451-35.571 54.724-14.237 34.272-14.839 69.009-0.603 36.823 11.362 68.267 11.966 31.443 36.175 55.652l154.433 155.038q24.672 24.672 58.606 36.475t68.111 11.804q35.986 0 68.703-11.804 32.716-11.803 57.103-35.269l15.583-14.979 14.979 14.979q24.069 22.864 57.936 34.969t68.639 12.105 68.023-12.707q33.252-12.708 57.924-37.38l178.272-177.669q25.289-25.042 37.92-60.186 12.631-35.142 12.631-69.769 0-35.228-13.542-70.481t-38.818-61.132l-358.863-358.261q-15.676-15.675-35.722-24.046-20.046-8.37-42.124-8.37z" />
<glyph unicode="&#xe973;" glyph-name="about_page" data-tags="about_page" d="M469.75 288.417h84.499v215.745h-84.499v-215.745zM512.187 579.662q17.901 0 29.982 12.269t12.081 30.169-12.268 29.982q-12.269 12.081-30.169 12.081-17.901 0-29.982-12.269t-12.081-30.169 12.268-29.981 30.169-12.082zM155.594 112.927v534.911l356.406 267.456 357.009-267.456v-534.911h-713.415zM240.093 197.426h543.814v412.429l-271.907 197.379-271.907-197.58v-412.228z" />
<glyph unicode="&#xe974;" glyph-name="phone_in_talk" data-tags="phone_in_talk_FILL0_wght500_GRAD0_opsz40" d="M827.147 522.574q-3.556 127.474-92.267 216.271t-216.356 92.352v74.511q78.57-1.422 147.598-32.077t120.788-82.5 82.416-120.912 32.077-147.645h-74.256zM646.678 522.574q-3.555 51.973-39.869 88.058-36.313 36.085-88.286 39.642v74.256q82.845-3.555 140.977-61.419 58.133-57.862 61.69-140.537h-74.512zM849.322 118.292q-134.067 0-264.523 63.716t-233.45 166.593-166.7 233.44-63.707 264.46q0 22.932 15.402 38.334t38.334 15.402h157.070q19.503 0 33.57-11.826t18.101-32.433l28.359-134.871q2.983-18.505-0.581-33.088-3.566-14.583-14.823-25.131l-106.79-104.965q53.056-87.823 121.793-156.021t153.81-116.382l102.422 103.962q12.607 13.063 29.133 18.416t34.064 1.572l127.822-27.849q20.372-4.828 32.401-19.214t12.028-35.078v-155.045q0-23.138-15.402-38.564t-38.334-15.426zM249.893 631.961l80.812 79.823-22.060 107.649h-106.118q1.267-40.871 12.608-86.698t34.758-100.774zM640.178 245.944q41.662-19.131 88.962-30.964t92.943-14.663v106.273l-102.415 21.349-79.49-81.995z" />
<glyph unicode="&#xe975;" glyph-name="chat" data-tags="chat_FILL0_wght500_GRAD0_opsz40" d="M255.915 425.87h336.355v71.111h-336.355v-71.111zM255.915 560.982h512v71.11h-512v-71.11zM255.915 696.093h512v71.11h-512v-71.11zM78.106 78.106v786.814q0 32.419 23.872 56.697t56.932 24.277h706.010q32.419 0 56.697-24.277t24.277-56.697v-535.343q0-32.349-24.277-56.576t-56.697-24.228h-616.147l-170.667-170.667zM158.91 267.183l62.393 62.394h643.617v535.343h-706.010v-597.737zM158.91 864.92v0z" />
<glyph unicode="&#xe976;" glyph-name="view_cozy" data-tags="view_cozy_FILL0_wght500_GRAD0_opsz40" d="M124.599 572.599v326.801h326.801v-326.801h-326.801zM203.362 651.362h169.276v169.276h-169.276v-169.276zM124.599 124.599v326.801h326.801v-326.801h-326.801zM203.362 203.362h169.276v169.276h-169.276v-169.276zM572.599 572.599v326.801h326.801v-326.801h-326.801zM651.362 651.362h169.276v169.276h-169.276v-169.276zM572.599 124.599v326.801h326.801v-326.801h-326.801zM651.362 203.362h169.276v169.276h-169.276v-169.276z" />
<glyph unicode="&#xe977;" glyph-name="article" data-tags="article" d="M298.481 300.614h293.333v64h-293.333v-64zM298.481 480h427.641v64h-427.641v-64zM298.481 659.988h427.641v64h-427.641v-64zM197.426 112.927q-34.674 0-59.586 24.913t-24.913 59.586v629.148q0 34.923 24.913 60.013 24.912 25.089 59.586 25.089h629.148q34.923 0 60.013-25.089 25.089-25.090 25.089-60.013v-629.148q0-34.674-25.089-59.586-25.090-24.913-60.013-24.913h-629.148zM197.426 197.426h629.148v629.148h-629.148v-629.148zM197.426 826.574v0z" />
<glyph unicode="&#xe978;" glyph-name="review_page" data-tags="review_page" d="M197.426 112.927q-34.674 0-59.586 24.913t-24.913 59.586v629.148q0 34.923 24.913 60.013 24.912 25.089 59.586 25.089h629.148q34.923 0 60.013-25.089 25.089-25.090 25.089-60.013v-629.148q0-34.674-25.089-59.586-25.090-24.913-60.013-24.913h-629.148zM197.426 197.426h629.148v629.148h-629.148v-629.148zM197.426 826.574v0zM387.2 330.667l124.8 75.733 124.8-75.733-33.067 141.867 110.933 96-146.133 11.733-56.533 134.4-56.533-134.4-146.133-11.733 110.933-96-33.067-141.867z" />
<glyph unicode="&#xf101;" glyph-name="left-sight" data-tags="left-sight" d="M793.868 970.775l-457.28-458.774 457.28-458.774-53.402-53.227-510.334 512 510.334 512z" />
<glyph unicode="&#xf10c;" glyph-name="width" data-tags="width" d="M1024 512l-179.279-179.281v148.088h-665.442v-148.088l-179.279 179.281 179.279 179.279v-148.086h665.442v148.086z" />
<glyph unicode="&#xf10d;" glyph-name="right-sight" data-tags="right-sight" d="M283.534 1024l510.334-512-510.334-512-53.402 53.227 457.282 458.774-457.282 458.774z" />
<glyph unicode="&#xf10e;" glyph-name="left" data-tags="left" d="M1024 544.254v-64.51h-860.122v-131.625l-163.879 163.877 163.879 163.885v-131.627h860.122z" />
</font>
</defs>
</svg>
